<?xml version="1.0" standalone="no"?>
<!DOCTYPE svg PUBLIC "-//W3C//DTD SVG 1.1//EN" "http://www.w3.org/Graphics/SVG/1.1/DTD/svg11.dtd" >
<svg xmlns="http://www.w3.org/2000/svg" xmlns:xlink="http://www.w3.org/1999/xlink" version="1.1">
<metadata>
Created by FontForge 20170731 at Fri May 24 18:31:21 2019
 By Aleksey,,,
(c) Ilya Ruderman and Yury Ostromentsky, CSTM Fonts, 2019
</metadata>
<defs>
<font id="MTSSans-Bold" horiz-adv-x="650" >
  <font-face 
    font-family="MTS Sans"
    font-weight="700"
    font-stretch="normal"
    units-per-em="1000"
    panose-1="2 0 0 0 0 0 0 0 0 0"
    ascent="800"
    descent="-200"
    x-height="510"
    cap-height="690"
    bbox="-170 -214 1404 919"
    underline-thickness="50"
    underline-position="-200"
    unicode-range="U+0020-FEFF"
  />
<missing-glyph horiz-adv-x="500" 
 />
    <glyph glyph-name="fi" unicode="fi" horiz-adv-x="603" 
d="M543 0h-162v381h-144v-381h-162v381h-62v129h62v55q0 85 44 125t158 40h266v-129h-240q-37 0 -51.5 -10.5t-14.5 -36.5v-44h306v-510z" />
    <glyph glyph-name="fl" unicode="fl" horiz-adv-x="603" 
d="M543 0h-162v381h-144v-381h-162v381h-62v129h62v41q0 92 44 135.5t158 43.5h266v-730zM237 547v-37h144v101h-78q-37 0 -51.5 -15t-14.5 -49z" />
    <glyph glyph-name=".notdef" horiz-adv-x="500" 
 />
    <glyph glyph-name=".null" horiz-adv-x="0" 
 />
    <glyph glyph-name="nonmarkingreturn" horiz-adv-x="333" 
 />
    <glyph glyph-name="space" unicode=" " horiz-adv-x="250" 
 />
    <glyph glyph-name="exclam" unicode="!" horiz-adv-x="322" 
d="M224 232h-125l-32 458h188zM252 74q0 -87 -90 -87q-91 0 -91 87q0 86 91 86q90 0 90 -86z" />
    <glyph glyph-name="quotedbl" unicode="&#x22;" horiz-adv-x="497" 
d="M200 423h-125l-15 267h154zM422 423h-125l-15 267h154z" />
    <glyph glyph-name="numbersign" unicode="#" horiz-adv-x="791" 
d="M64 406l29 126h143l34 158h130l-34 -158h138l34 158h131l-34 -158h119l-29 -126h-117l-29 -139h148l-29 -126h-146l-30 -141h-131l30 141h-138l-30 -141h-130l30 141h-116l29 126h114l29 139h-145zM339 406l-29 -139h138l29 139h-138z" />
    <glyph glyph-name="dollar" unicode="$" horiz-adv-x="661" 
d="M404 -120h-151v112q-102 14 -155.5 68t-57.5 155h172q2 -56 32.5 -77t90.5 -21q61 0 91.5 18.5t30.5 62.5q0 31 -22.5 48.5t-58 25t-79 13.5t-86.5 17t-78.5 30.5t-58 60.5t-22.5 101q0 177 201 204v112h151v-112q198 -27 204 -204h-172q-4 45 -31.5 62t-79.5 17
q-110 0 -110 -77q0 -29 22.5 -46t58 -25t79 -14t87 -17t79 -30.5t58 -59t22.5 -96.5q0 -195 -217 -217v-111z" />
    <glyph glyph-name="percent" unicode="%" horiz-adv-x="998" 
d="M810 690l-477 -690h-146l474 690h149zM232 316q-94 0 -148 49t-54 145q0 94 54 143.5t148 49.5t148 -49.5t54 -143.5q0 -96 -54 -145t-148 -49zM232 423q36 0 52 15.5t16 57.5v27q0 40 -16.5 56.5t-51.5 16.5t-51.5 -16.5t-16.5 -56.5v-27q0 -42 16 -57.5t52 -15.5z
M767 -14q-94 0 -148 49.5t-54 144.5t54 144.5t148 49.5q93 0 147 -49.5t54 -144.5t-54 -144.5t-147 -49.5zM767 93q36 0 52 16t16 58v26q0 40 -16.5 56.5t-51.5 16.5q-36 0 -52.5 -16t-16.5 -57v-26q0 -42 16.5 -58t52.5 -16z" />
    <glyph glyph-name="ampersand" unicode="&#x26;" horiz-adv-x="779" 
d="M40 187q-2 131 142 190q-67 75 -67 153t54.5 125.5t165.5 47.5q110 0 165 -46t55 -126q0 -58 -35.5 -101t-115.5 -81l120 -112q14 47 14 108h147q0 -122 -55 -206q30 -25 86 -25h24v-114h-57q-101 0 -151 44q-93 -57 -218 -57q-145 0 -209 56t-65 144zM324 104
q71 0 117 26l-175 166q-58 -32 -58 -89v-16q0 -42 30.5 -64.5t85.5 -22.5zM268 522q0 -45 54 -97q80 35 80 96v12q0 54 -67 54q-31 0 -49 -14t-18 -39v-12z" />
    <glyph glyph-name="quotesingle" unicode="'" horiz-adv-x="274" 
d="M200 423h-125l-15 267h154z" />
    <glyph glyph-name="parenleft" unicode="(" horiz-adv-x="459" 
d="M410 -214q-162 18 -246 130.5t-84 348.5t85 349t245 131v-130q-79 -17 -123 -88.5t-44 -184.5v-154q0 -113 44 -184t123 -88v-130z" />
    <glyph glyph-name="parenright" unicode=")" horiz-adv-x="459" 
d="M49 745q162 -18 246 -130.5t84 -348.5t-85 -349t-245 -131v130q79 17 123 88.5t44 184.5v154q0 113 -44 184t-123 88v130z" />
    <glyph glyph-name="asterisk" unicode="*" horiz-adv-x="519" 
d="M444 458l-50 -88l-90 60l11 -108h-111l10 108l-88 -60l-51 88l99 48l-99 48l51 88l88 -61l-10 109h111l-11 -109l90 61l50 -88l-99 -48z" />
    <glyph glyph-name="plus" unicode="+" 
d="M253 94v187h-189v141h189v187h144v-187h189v-141h-189v-187h-144z" />
    <glyph glyph-name="comma" unicode="," horiz-adv-x="287" 
d="M142 160q92 0 92 -92v-65q0 -89 -35 -124.5t-120 -35.5v83q37 0 51 13.5t14 41.5v6h-3q-88 0 -88 90q0 83 89 83z" />
    <glyph glyph-name="hyphen" unicode="-" horiz-adv-x="420" 
d="M370 180h-320v156h320v-156z" />
    <glyph glyph-name="period" unicode="." horiz-adv-x="287" 
d="M234 74q0 -87 -90 -87q-91 0 -91 87q0 86 91 86q90 0 90 -86z" />
    <glyph glyph-name="slash" unicode="/" horiz-adv-x="556" 
d="M223 -95h-158l313 835h158z" />
    <glyph glyph-name="zero" unicode="0" horiz-adv-x="663" 
d="M622 345q0 -182 -71.5 -270t-218.5 -88t-218.5 88t-71.5 270q0 358 290 358t290 -358zM450 296v99q0 87 -26 131t-92 44q-67 0 -92.5 -42.5t-25.5 -132.5v-99q0 -92 25.5 -133.5t92.5 -42.5q66 0 92 42t26 134z" />
    <glyph glyph-name="one" unicode="1" horiz-adv-x="414" 
d="M35 415v163l142 112h167v-690h-167v531z" />
    <glyph glyph-name="two" unicode="2" horiz-adv-x="613" 
d="M310 570q-45 0 -64.5 -19t-23.5 -68h-172q5 118 71 169t189 51q128 0 192 -49t64 -160q0 -56 -23.5 -99t-58.5 -67.5t-77 -47t-78.5 -38.5t-63.5 -41.5t-31 -56.5h332v-144h-519v83q0 61 19 108t49.5 76t67.5 51t74 38t67.5 32t49.5 38t19 51v22q0 37 -20 54t-63 17z" />
    <glyph glyph-name="three" unicode="3" horiz-adv-x="627" 
d="M315 120q50 0 74 17t24 58v24q0 73 -96 73h-63v127h63q72 0 72 67v22q0 62 -74 62q-39 0 -59.5 -16t-23.5 -59h-176q3 208 257 208q117 0 182 -45.5t65 -135.5q0 -121 -119 -157q143 -32 143 -164q0 -104 -67 -159.5t-202 -55.5q-136 0 -206 51t-72 167h177q1 -44 26 -64
t75 -20z" />
    <glyph glyph-name="four" unicode="4" horiz-adv-x="669" 
d="M283 690h256v-404h103v-132h-103v-154h-167v154h-339v119zM193 286h179v299z" />
    <glyph glyph-name="five" unicode="5" horiz-adv-x="629" 
d="M318 120q93 0 93 95v31q0 96 -94 96q-66 0 -101 -43l-147 32l31 359h434v-144h-305l-12 -140q45 47 140 47q110 0 167.5 -57.5t57.5 -165.5q0 -121 -68.5 -182t-195.5 -61q-266 0 -278 218h176q6 -44 29.5 -64.5t72.5 -20.5z" />
    <glyph glyph-name="six" unicode="6" horiz-adv-x="632" 
d="M328 569q-59 0 -87 -39t-28 -144v-12q56 68 163 68q101 0 158.5 -53.5t57.5 -164.5q0 -114 -68 -175.5t-200 -61.5q-147 0 -214.5 82.5t-67.5 273.5q0 103 20.5 175t61 111.5t91 56.5t118.5 17q115 0 177.5 -51.5t68.5 -135.5h-168q-14 53 -83 53zM324 116q97 0 97 94v30
q0 90 -97 90q-102 0 -102 -107q0 -58 26 -82.5t76 -24.5z" />
    <glyph glyph-name="seven" unicode="7" horiz-adv-x="534" 
d="M27 546v144h479v-121l-254 -569h-163l243 546h-305z" />
    <glyph glyph-name="eight" unicode="8" horiz-adv-x="655" 
d="M324 -13q-142 0 -214 49.5t-72 156.5q0 142 143 175q-120 31 -120 152q0 93 70.5 138t192.5 45q123 0 193.5 -45.5t70.5 -137.5q0 -121 -121 -152q144 -34 144 -175q0 -206 -287 -206zM324 299q-117 0 -117 -83v-21q0 -81 117 -81q54 0 86 20t32 61v21q0 83 -118 83z
M324 415q95 0 95 73v16q0 72 -95 72q-94 0 -94 -72v-16q0 -73 94 -73z" />
    <glyph glyph-name="nine" unicode="9" horiz-adv-x="632" 
d="M304 118q59 0 87 39t28 144v12q-56 -68 -163 -68q-101 0 -158.5 53.5t-57.5 164.5q0 114 68 175.5t200 61.5q147 0 214.5 -82.5t67.5 -273.5q0 -103 -20.5 -175t-61 -111.5t-91 -56.5t-118.5 -17q-115 0 -177.5 51.5t-68.5 135.5h168q14 -53 83 -53zM308 571
q-97 0 -97 -94v-30q0 -90 97 -90q102 0 102 107q0 58 -26 82.5t-76 24.5z" />
    <glyph glyph-name="colon" unicode=":" horiz-adv-x="287" 
d="M234 74q0 -87 -90 -87q-91 0 -91 87q0 86 91 86q90 0 90 -86zM234 387q0 -87 -90 -87q-91 0 -91 87q0 86 91 86q90 0 90 -86z" />
    <glyph glyph-name="semicolon" unicode=";" horiz-adv-x="287" 
d="M234 387q0 -87 -90 -87q-91 0 -91 87q0 86 91 86q90 0 90 -86zM142 160q92 0 92 -92v-65q0 -89 -35 -124.5t-120 -35.5v83q37 0 51 13.5t14 41.5v6h-3q-88 0 -88 90q0 83 89 83z" />
    <glyph glyph-name="less" unicode="&#x3c;" 
d="M586 480l-357 -129l357 -127v-150l-522 193v169l522 192v-148z" />
    <glyph glyph-name="equal" unicode="=" 
d="M586 407h-522v141h522v-141zM586 152h-522v141h522v-141z" />
    <glyph glyph-name="greater" unicode="&#x3e;" 
d="M64 222l357 129l-357 127v150l522 -193v-169l-522 -192v148z" />
    <glyph glyph-name="question" unicode="?" horiz-adv-x="592" 
d="M303 570q-47 0 -73 -18t-28 -63h-172q2 117 73.5 165.5t200.5 48.5q123 0 190.5 -48t67.5 -145q0 -49 -21 -84t-50.5 -53.5t-59 -34.5t-50.5 -38t-21 -52v-16h-153v16q0 51 19 86.5t45.5 53.5t53.5 31.5t46 30t19 39.5v20q0 61 -87 61zM374 74q0 -87 -90 -87
q-91 0 -91 87q0 86 91 86q90 0 90 -86z" />
    <glyph glyph-name="at" unicode="@" horiz-adv-x="1089" 
d="M495 11q-199 0 -199 242q0 120 51 180t148 60q92 0 140 -68v51h137v-260q0 -51 13.5 -68t43.5 -17q67 0 67 118v60q0 79 -27.5 136.5t-77.5 89t-110 45.5t-135 14q-352 0 -352 -306v-65q0 -74 21 -130.5t54.5 -89.5t81 -54t94 -28.5t100.5 -7.5q55 0 119 10.5t97 31.5
v-109q-73 -43 -216 -43q-78 0 -145 12t-133 43t-112 80.5t-74 130t-28 185.5q0 227 130.5 338t362.5 111q230 0 359.5 -105.5t129.5 -309.5q0 -135 -58 -206t-162 -71q-135 0 -162 97q-41 -97 -158 -97zM539 127q89 0 89 100v49q0 52 -21.5 76.5t-68.5 24.5q-46 0 -67 -24.5
t-21 -76.5v-49q0 -51 21.5 -75.5t67.5 -24.5z" />
    <glyph glyph-name="A" unicode="A" horiz-adv-x="710" 
d="M229 690h245l224 -690h-175l-49 152h-262l-47 -152h-153zM341 568l-90 -289h182z" />
    <glyph glyph-name="B" unicode="B" horiz-adv-x="671" 
d="M634 201q0 -98 -57.5 -149.5t-171.5 -51.5h-335v690h335q101 0 155 -43.5t54 -126.5q0 -118 -111 -156q131 -35 131 -163zM462 227q0 72 -94 72h-134v-179h134q94 0 94 74v33zM443 505q0 31 -22 48t-62 17h-125v-160h125q84 0 84 69v26z" />
    <glyph glyph-name="C" unicode="C" horiz-adv-x="702" 
d="M359 -13q-158 0 -237.5 85t-79.5 275q0 186 80 271t237 85q139 0 214.5 -56.5t90.5 -184.5h-172q-7 59 -40 83.5t-93 24.5q-72 0 -108.5 -39.5t-36.5 -133.5v-102q0 -94 36 -134.5t109 -40.5q58 0 91 24t43 84h172q-15 -126 -91.5 -183.5t-214.5 -57.5z" />
    <glyph glyph-name="D" unicode="D" horiz-adv-x="709" 
d="M325 141q89 0 129.5 38t40.5 127v79q0 86 -41 125t-129 39h-88v-408h88zM325 0h-255v690h255q176 0 259 -80.5t83 -264.5q0 -182 -83.5 -263.5t-258.5 -81.5z" />
    <glyph glyph-name="E" unicode="E" horiz-adv-x="611" 
d="M568 0h-498v690h494v-137h-327v-133h246v-134h-246v-149h331v-137z" />
    <glyph glyph-name="F" unicode="F" horiz-adv-x="591" 
d="M237 0h-167v690h477v-141h-310v-142h233v-141h-233v-266z" />
    <glyph glyph-name="G" unicode="G" horiz-adv-x="719" 
d="M678 275q0 -143 -81 -215.5t-237 -72.5q-159 0 -238.5 84.5t-79.5 275.5q0 187 80 271.5t238 84.5q139 0 216.5 -57t91.5 -181h-173q-8 56 -41.5 80.5t-93.5 24.5q-72 0 -109 -39.5t-37 -133.5v-106q0 -93 36 -132t110 -39q76 0 110 29.5t39 98.5h-132v121h301v-94z" />
    <glyph glyph-name="H" unicode="H" horiz-adv-x="727" 
d="M657 0h-167v281h-253v-281h-167v690h167v-268h253v268h167v-690z" />
    <glyph glyph-name="I" unicode="I" horiz-adv-x="307" 
d="M237 0h-167v690h167v-690z" />
    <glyph glyph-name="J" unicode="J" horiz-adv-x="382" 
d="M147 211v479h167v-543q0 -75 -38 -111t-128 -36h-125v134h55q37 0 53 18.5t16 58.5z" />
    <glyph glyph-name="K" unicode="K" horiz-adv-x="684" 
d="M237 690v-271h44l194 271h179l-236 -332l257 -358h-195l-200 277h-43v-277h-167v690h167z" />
    <glyph glyph-name="L" unicode="L" horiz-adv-x="536" 
d="M516 0h-446v690h167v-549h279v-141z" />
    <glyph glyph-name="M" unicode="M" horiz-adv-x="914" 
d="M343 690l123 -442l124 442h254v-690h-167v560l-134 -469h-184l-134 472v-563h-155v690h273z" />
    <glyph glyph-name="N" unicode="N" horiz-adv-x="744" 
d="M298 690l221 -480v480h156v-690h-229l-221 479v-479h-155v690h228z" />
    <glyph glyph-name="O" unicode="O" horiz-adv-x="760" 
d="M719 352q0 -196 -84 -280.5t-255 -84.5t-254.5 84.5t-83.5 280.5q0 188 83.5 269.5t254.5 81.5t255 -81.5t84 -269.5zM547 303v85q0 96 -40.5 139t-126.5 43t-126 -43t-40 -139v-85q0 -100 39.5 -141.5t126.5 -41.5t127 41.5t40 141.5z" />
    <glyph glyph-name="P" unicode="P" horiz-adv-x="657" 
d="M630 455q0 -229 -239 -229h-154v-226h-167v690h321q120 0 179.5 -61t59.5 -174zM458 439v34q0 78 -86 78h-135v-186h135q42 0 64 19.5t22 54.5z" />
    <glyph glyph-name="Q" unicode="Q" horiz-adv-x="760" 
d="M719 352q0 -191 -83 -280l79 -87l-115 -97l-102 111q-52 -12 -118 -12q-171 0 -254.5 84.5t-83.5 280.5q0 188 83.5 269.5t254.5 81.5t255 -81.5t84 -269.5zM547 303v85q0 96 -40.5 139t-126.5 43t-126 -43t-40 -139v-85q0 -100 39.5 -141.5t126.5 -41.5t127 41.5
t40 141.5z" />
    <glyph glyph-name="R" unicode="R" horiz-adv-x="682" 
d="M625 468q0 -148 -115 -200l132 -268h-180l-118 243h-107v-243h-167v690h305q123 0 186.5 -57t63.5 -165zM453 453v27q0 75 -89 75h-127v-177h127q89 0 89 75z" />
    <glyph glyph-name="S" unicode="S" horiz-adv-x="661" 
d="M621 208q0 -221 -285 -221q-142 0 -216.5 54t-79.5 174h172q2 -56 32.5 -77t90.5 -21q61 0 91.5 18.5t30.5 62.5q0 31 -22.5 48.5t-58 25t-79 13.5t-86.5 17t-78.5 30.5t-58 60.5t-22.5 101q0 105 71 157t202 52q276 0 283 -209h-172q-4 45 -31.5 62t-79.5 17
q-110 0 -110 -77q0 -29 22.5 -46t58 -25t79 -14t87 -17t79 -30.5t58 -59t22.5 -96.5z" />
    <glyph glyph-name="T" unicode="T" horiz-adv-x="617" 
d="M597 549h-205v-549h-167v549h-205v141h577v-141z" />
    <glyph glyph-name="U" unicode="U" horiz-adv-x="715" 
d="M358 120q64 0 94.5 31t30.5 109v430h167v-430q0 -141 -72.5 -207t-219.5 -66t-220 66t-73 207v430h167v-430q0 -78 30.5 -109t95.5 -31z" />
    <glyph glyph-name="V" unicode="V" horiz-adv-x="696" 
d="M473 0h-244l-217 690h174l175 -566l170 566h153z" />
    <glyph glyph-name="W" unicode="W" horiz-adv-x="936" 
d="M354 0h-206l-131 690h166l94 -507l110 507h176l108 -508l96 508h152l-134 -690h-221l-105 489z" />
    <glyph glyph-name="X" unicode="X" horiz-adv-x="671" 
d="M195 690l145 -221l137 221h167l-215 -344l229 -346h-181l-150 224l-141 -224h-168l221 346l-226 344h182z" />
    <glyph glyph-name="Y" unicode="Y" horiz-adv-x="678" 
d="M190 690l165 -262l151 262h162l-235 -404v-286h-167v286l-256 404h180z" />
    <glyph glyph-name="Z" unicode="Z" horiz-adv-x="611" 
d="M564 0h-517v141l322 408h-317v141h508v-141l-323 -408h327v-141z" />
    <glyph glyph-name="bracketleft" unicode="[" horiz-adv-x="426" 
d="M377 -210h-292v950h292v-127h-141v-696h141v-127z" />
    <glyph glyph-name="backslash" unicode="\" horiz-adv-x="556" 
d="M333 -95l-313 835h158l313 -835h-158z" />
    <glyph glyph-name="bracketright" unicode="]" horiz-adv-x="426" 
d="M49 740h292v-950h-292v127h141v696h-141v127z" />
    <glyph glyph-name="asciicircum" unicode="^" horiz-adv-x="495" 
d="M308 439l-60 177l-60 -177h-145l109 291h192l108 -291h-144z" />
    <glyph glyph-name="underscore" unicode="_" horiz-adv-x="573" 
d="M0 -172v118h573v-118h-573z" />
    <glyph glyph-name="a" unicode="a" horiz-adv-x="593" 
d="M40 140q0 80 52 119t163 48l121 9v21q0 40 -17.5 57t-54.5 17q-36 0 -54 -13.5t-23 -43.5h-168q12 169 244 169q235 0 235 -186v-337h-156v62q-52 -75 -171 -75q-81 0 -126 42t-45 111zM274 96q49 0 75.5 25t26.5 71v32l-100 -9q-36 -3 -53 -15t-17 -37v-16q0 -51 68 -51
z" />
    <glyph glyph-name="b" unicode="b" horiz-adv-x="628" 
d="M217 0h-157v730h162v-273q48 66 153 66q216 0 216 -270q0 -133 -55.5 -199.5t-160.5 -66.5q-109 0 -158 71v-58zM323 102q101 0 101 105v101q0 51 -24 75.5t-76 24.5q-51 0 -75.5 -22t-26.5 -68v-111q0 -105 101 -105z" />
    <glyph glyph-name="c" unicode="c" horiz-adv-x="559" 
d="M527 166q-11 -91 -70.5 -135t-172.5 -44q-128 0 -187.5 63t-59.5 205q0 141 59.5 204.5t187.5 63.5q111 0 172 -41.5t68 -137.5h-165q-6 64 -75 64q-41 0 -60.5 -23t-19.5 -74v-106q0 -103 80 -103q71 0 78 64h165z" />
    <glyph glyph-name="d" unicode="d" horiz-adv-x="628" 
d="M411 0v60q-48 -73 -159 -73q-215 0 -215 266q0 270 215 270q105 0 154 -67v274h162v-730h-157zM305 102q96 0 101 95v121q-4 90 -102 90q-52 0 -76 -24.5t-24 -75.5v-101q0 -54 24.5 -79.5t76.5 -25.5z" />
    <glyph glyph-name="e" unicode="e" horiz-adv-x="582" 
d="M292 99q86 0 91 72h163q-20 -184 -254 -184q-129 0 -192 65t-63 201q0 138 63 204t192 66q128 0 190.5 -59.5t62.5 -190.5v-31h-348v-31q0 -112 95 -112zM291 411q-44 0 -67 -18.5t-27 -59.5h183q-3 42 -24 60t-65 18z" />
    <glyph glyph-name="f" unicode="f" horiz-adv-x="361" 
d="M356 601h-53q-37 0 -51.5 -13t-14.5 -44v-34h119v-129h-119v-381h-162v381h-62v129h62v38q0 99 41.5 140.5t149.5 41.5h90v-129z" />
    <glyph glyph-name="g" unicode="g" horiz-adv-x="628" 
d="M568 11q0 -224 -258 -224q-116 0 -181.5 43.5t-72.5 125.5h169q10 -54 85 -54q49 0 72.5 24t23.5 85v43q-48 -61 -146 -61q-109 0 -166 65.5t-57 194.5q0 270 223 270q104 0 151 -71v58h157v-499zM305 109q52 0 76.5 25.5t24.5 78.5v105q-4 90 -102 90q-52 0 -76 -24.5
t-24 -75.5v-95q0 -53 24.5 -78.5t76.5 -25.5z" />
    <glyph glyph-name="h" unicode="h" horiz-adv-x="612" 
d="M395 0v330q0 42 -21.5 61t-65.5 19q-86 0 -86 -80v-330h-162v730h159v-289q43 84 162 84q176 0 176 -195v-330h-162z" />
    <glyph glyph-name="i" unicode="i" horiz-adv-x="282" 
d="M222 0h-162v510h162v-510zM229 668q0 -84 -88 -84t-88 84q0 83 88 83t88 -83z" />
    <glyph glyph-name="j" unicode="j" horiz-adv-x="282" 
d="M-44 -71h44q33 0 46.5 15t13.5 49v517h162v-538q0 -93 -34 -132.5t-125 -39.5h-107v129zM229 668q0 -84 -88 -84t-88 84q0 83 88 83t88 -83z" />
    <glyph glyph-name="k" unicode="k" horiz-adv-x="593" 
d="M222 0h-162v730h162v-410h39l127 190h179l-162 -243l183 -267h-195l-131 191h-40v-191z" />
    <glyph glyph-name="l" unicode="l" horiz-adv-x="282" 
d="M222 0h-162v730h162v-730z" />
    <glyph glyph-name="m" unicode="m" horiz-adv-x="907" 
d="M375 0v330q0 43 -18.5 61.5t-58.5 18.5q-76 0 -76 -80v-330h-162v510h157v-72q40 87 154 87q113 0 148 -88q45 88 167 88q84 0 125 -48t41 -147v-330h-162v330q0 43 -18.5 61.5t-58.5 18.5q-72 0 -76 -72v-8v-330h-162z" />
    <glyph glyph-name="n" unicode="n" horiz-adv-x="612" 
d="M395 0v330q0 42 -21.5 61t-65.5 19q-86 0 -86 -80v-330h-162v510h157v-72q41 87 164 87q176 0 176 -195v-330h-162z" />
    <glyph glyph-name="o" unicode="o" horiz-adv-x="610" 
d="M305 -13q-140 0 -204 61.5t-64 206.5q0 144 64 206t204 62q139 0 203.5 -62t64.5 -206q0 -145 -64.5 -206.5t-203.5 -61.5zM305 102q52 0 76.5 25t24.5 84v93q0 56 -24.5 80t-76.5 24t-76.5 -24t-24.5 -80v-93q0 -59 24.5 -84t76.5 -25z" />
    <glyph glyph-name="p" unicode="p" horiz-adv-x="628" 
d="M222 -200h-162v710h157v-62q51 75 164 75q210 0 210 -270q0 -131 -53 -198.5t-157 -67.5q-108 0 -159 67v-254zM323 102q52 0 76.5 25.5t24.5 79.5v101q0 100 -100 100q-51 0 -75.5 -22.5t-26.5 -68.5v-110q0 -54 24.5 -79.5t76.5 -25.5z" />
    <glyph glyph-name="q" unicode="q" horiz-adv-x="628" 
d="M260 -13q-223 0 -223 266q0 270 223 270q104 0 151 -71v58h157v-710h-162v250q-47 -63 -146 -63zM305 102q52 0 76.5 25.5t24.5 79.5v110q-5 91 -102 91q-100 0 -100 -100v-101q0 -54 24.5 -79.5t76.5 -25.5z" />
    <glyph glyph-name="r" unicode="r" horiz-adv-x="439" 
d="M412 510v-139h-66q-68 0 -96 -23t-28 -75v-273h-162v510h157v-97q33 97 146 97h49z" />
    <glyph glyph-name="s" unicode="s" horiz-adv-x="560" 
d="M365 142q0 26 -23.5 39.5t-58.5 16.5t-76.5 11t-76.5 20.5t-58.5 48t-23.5 90.5q0 155 225 155q236 0 241 -170h-166q-1 34 -20 47t-55 13q-64 0 -64 -42q0 -24 23.5 -37t59 -16.5t76.5 -12t76.5 -21.5t59 -48t23.5 -89q0 -79 -61 -119.5t-179 -40.5q-244 0 -254 178h166
q3 -68 89 -68q77 0 77 45z" />
    <glyph glyph-name="t" unicode="t" horiz-adv-x="383" 
d="M13 381v129h62v153h162v-153h118v-129h-118v-188q0 -35 13.5 -49.5t46.5 -14.5h58v-129h-121q-90 0 -124.5 40t-34.5 132v209h-62z" />
    <glyph glyph-name="u" unicode="u" horiz-adv-x="612" 
d="M217 510v-330q0 -43 21.5 -61.5t65.5 -18.5q86 0 86 80v330h162v-510h-157v73q-41 -88 -164 -88q-90 0 -133 46t-43 149v330h162z" />
    <glyph glyph-name="v" unicode="v" horiz-adv-x="553" 
d="M174 0l-162 510h162l111 -363l109 363h147l-160 -510h-207z" />
    <glyph glyph-name="w" unicode="w" horiz-adv-x="804" 
d="M478 0l-80 359l-75 -359h-187l-118 510h151l79 -365l77 365h168l79 -356l78 356h136l-117 -510h-191z" />
    <glyph glyph-name="x" unicode="x" horiz-adv-x="567" 
d="M194 257l-177 253h169l101 -145l94 145h156l-167 -253l181 -257h-170l-105 150l-99 -150h-156z" />
    <glyph glyph-name="y" unicode="y" horiz-adv-x="567" 
d="M76 -75h48q44 0 61 10.5t30 46.5l1 3l-204 525h165l116 -311l113 311h149l-208 -569q-30 -83 -71 -112t-124 -29h-76v125z" />
    <glyph glyph-name="z" unicode="z" horiz-adv-x="514" 
d="M475 0h-437v129l235 252h-230v129h415v-129l-234 -252h251v-129z" />
    <glyph glyph-name="braceleft" unicode="{" horiz-adv-x="440" 
d="M268 547v-136q0 -31 -3 -51.5t-12 -41.5t-29 -34t-51 -20q60 -10 77.5 -44t17.5 -102v-132q0 -37 11 -53t42 -16h71v-127h-117q-86 0 -120.5 35.5t-34.5 119.5v141q0 58 -16 84t-69 27v135q52 1 68.5 29t16.5 83v141q0 84 34.5 119.5t120.5 35.5h117v-127h-71
q-31 0 -42 -15.5t-11 -50.5z" />
    <glyph glyph-name="bar" unicode="|" horiz-adv-x="287" 
d="M219 -200h-151v930h151v-930z" />
    <glyph glyph-name="braceright" unicode="}" horiz-adv-x="440" 
d="M172 -17v136q0 31 3 51.5t12 41.5t29 34t51 20q-60 10 -77.5 44t-17.5 102v132q0 37 -11 53t-42 16h-71v127h117q86 0 120.5 -35.5t34.5 -119.5v-141q0 -58 16 -84t69 -27v-135q-52 -1 -68.5 -29t-16.5 -83v-141q0 -84 -34.5 -119.5t-120.5 -35.5h-117v127h71
q31 0 42 15.5t11 50.5z" />
    <glyph glyph-name="asciitilde" unicode="~" horiz-adv-x="627" 
d="M213 476q37 0 68 -14.5t47.5 -32.5t36 -32.5t36.5 -14.5q51 0 51 90h134q-2 -217 -167 -217q-36 0 -66 13.5t-47 30.5t-37 30.5t-37 13.5q-57 0 -57 -83h-134q1 106 44.5 161t127.5 55z" />
    <glyph glyph-name="nonbreakingspace" unicode="&#xa0;" horiz-adv-x="200" 
 />
    <glyph glyph-name="cent" unicode="&#xa2;" horiz-adv-x="559" 
d="M355 -120h-144v113q-90 16 -132 78.5t-42 183.5q0 119 42 182t132 80v113h144v-112q78 -12 120.5 -53t48.5 -121h-165q-6 64 -75 64q-41 0 -60.5 -23t-19.5 -74v-106q0 -103 80 -103q71 0 78 64h165q-19 -149 -172 -173v-113z" />
    <glyph glyph-name="sterling" unicode="&#xa3;" horiz-adv-x="672" 
d="M77 258v113h59q-55 73 -55 141q0 94 70.5 142.5t198.5 48.5q253 0 264 -196h-172q-7 65 -92 65q-97 0 -97 -78v-7q0 -18 6.5 -34.5t13.5 -26.5t22.5 -28t21.5 -27h182v-113h-141v-5q0 -69 -59 -112h323v-141h-572v134q62 0 105 25.5t43 73.5v15q0 6 -1 10h-120z" />
    <glyph glyph-name="currency" unicode="&#xa4;" horiz-adv-x="670" 
d="M515 87l-84 83q-41 -15 -96 -15t-97 15l-83 -83l-80 82l73 74q-25 44 -25 105q0 62 26 106l-74 75l80 81l83 -82q45 16 97 16q54 0 97 -17l84 83l79 -81l-74 -75q26 -44 26 -106q0 -61 -26 -105l74 -74zM335 265q80 0 80 83q0 85 -80 85t-80 -85q0 -83 80 -83z" />
    <glyph glyph-name="yen" unicode="&#xa5;" horiz-adv-x="698" 
d="M190 690l166 -261l164 261h168l-202 -310h112v-113h-168v-62h168v-113h-168v-92h-167v92h-169v113h169v62h-169v113h113l-197 310h180z" />
    <glyph glyph-name="brokenbar" unicode="&#xa6;" horiz-adv-x="287" 
d="M219 360h-151v370h151v-370zM219 -200h-151v370h151v-370z" />
    <glyph glyph-name="section" unicode="&#xa7;" horiz-adv-x="651" 
d="M604 288q0 -97 -87 -147q61 -49 61 -122q0 -88 -69.5 -134t-181.5 -46q-260 0 -263 188h172q2 -31 21.5 -46t69.5 -15q86 0 86 48v11q0 20 -27 36.5t-68 28t-88 29.5t-88 38.5t-68 56.5t-27 82q0 98 88 148q-57 47 -57 118q0 88 67.5 134.5t176.5 46.5q254 0 256 -188
h-172q-2 31 -20 46t-64 15q-79 0 -79 -48v-11q0 -20 26.5 -36.5t67 -28t87 -29t87 -38t67 -56t26.5 -81.5zM448 268q0 18 -11 33t-35.5 27t-46 20t-59.5 20.5t-59 20.5q-35 -23 -35 -64v-9q0 -19 11 -33.5t35.5 -27t45.5 -20.5t59.5 -20.5t59.5 -20.5q35 24 35 65v9z" />
    <glyph glyph-name="dieresis" unicode="&#xa8;" horiz-adv-x="476" 
d="M426 668q0 -39 -21 -59.5t-59 -20.5q-81 0 -81 80t81 80q38 0 59 -20.5t21 -59.5zM212 668q0 -80 -81 -80t-81 80t81 80t81 -80z" />
    <glyph glyph-name="copyright" unicode="&#xa9;" horiz-adv-x="862" 
d="M598 282q-17 -128 -163 -128q-89 0 -133 50.5t-44 141.5q0 90 44 140t134 50q153 0 161 -132h-110q-4 38 -51 38q-59 0 -59 -76v-40q0 -79 58 -79q46 0 52 35h111zM809 345q0 -169 -101.5 -263.5t-272.5 -94.5t-273 95t-102 263t102 263t273 95t272.5 -94.5t101.5 -263.5
zM435 64q133 0 208.5 70.5t75.5 210.5q0 139 -76 210t-208 71t-208 -71t-76 -210q0 -140 75.5 -210.5t208.5 -70.5z" />
    <glyph glyph-name="ordfeminine" unicode="&#xaa;" horiz-adv-x="513" 
d="M326 588v22q0 60 -63 60q-30 0 -44 -12t-19 -38h-147q11 144 210 144q99 0 151.5 -39t52.5 -115v-290h-136v54q-46 -64 -148 -64q-69 0 -107.5 33.5t-38.5 90.5q0 67 44.5 102.5t141.5 43.5zM179 460v-13q0 -43 59 -43q88 0 88 78v31l-86 -7q-32 -3 -46.5 -13.5
t-14.5 -32.5z" />
    <glyph glyph-name="guillemotleft" unicode="&#xab;" horiz-adv-x="560" 
d="M261 344l-113 -85l113 -86v-155l-223 180v117l223 180v-151zM508 344l-113 -85l113 -86v-155l-223 180v117l223 180v-151z" />
    <glyph glyph-name="logicalnot" unicode="&#xac;" 
d="M586 156h-144v201h-378v141h522v-342z" />
    <glyph glyph-name="uni00AD" unicode="&#xad;" horiz-adv-x="420" 
d="M370 180h-320v156h320v-156z" />
    <glyph glyph-name="registered" unicode="&#xae;" horiz-adv-x="594" 
d="M534 478q0 -107 -64 -165.5t-173 -58.5q-108 0 -172.5 58.5t-64.5 165.5q0 108 64.5 166.5t172.5 58.5q109 0 173 -58.5t64 -166.5zM297 306q83 0 129.5 42.5t46.5 129.5q0 88 -46.5 130.5t-129.5 42.5t-129 -42.5t-46 -130.5q0 -87 46 -129.5t129 -42.5zM403 515
q0 37 -23.5 59t-70.5 22h-98v-224h62v65h36h2l30 -65h65l-35 79q32 21 32 64zM334 522v-13q0 -19 -27 -19h-34v53h34q27 0 27 -21z" />
    <glyph glyph-name="degree" unicode="&#xb0;" horiz-adv-x="480" 
d="M240 353q-93 0 -145 45.5t-52 128.5q0 82 52.5 129t144.5 47t144 -47.5t52 -128.5q0 -82 -52 -128t-144 -46zM240 452q66 0 66 75q0 77 -66 77t-66 -77q0 -75 66 -75z" />
    <glyph glyph-name="plusminus" unicode="&#xb1;" 
d="M253 253v142h-189v141h189v143h144v-143h189v-141h-189v-142h-144zM586 50h-522v141h522v-141z" />
    <glyph glyph-name="twosuperior" unicode="&#xb2;" horiz-adv-x="451" 
d="M214 717q-52 0 -55 -44h-132q7 140 185 140q187 0 187 -131q0 -42 -22 -71t-55 -44t-66.5 -26t-60.5 -26t-33 -36h237v-104h-370v61q0 52 24.5 88.5t59.5 54.5t70 30.5t59.5 26t24.5 31.5v12q0 38 -53 38z" />
    <glyph glyph-name="threesuperior" unicode="&#xb3;" horiz-adv-x="446" 
d="M225 457q60 0 60 41v12q0 35 -63 35h-42v96h41q48 0 48 29v12q0 36 -48 36q-25 0 -37 -8t-16 -29h-128q5 132 183 132q82 0 129.5 -29.5t47.5 -85.5q0 -78 -87 -101q103 -20 103 -100q0 -65 -48 -100t-142 -35t-143 33t-53 105h131q11 -43 64 -43z" />
    <glyph glyph-name="paragraph" unicode="&#xb6;" horiz-adv-x="728" 
d="M418 -150h-144v428h-9q-112 0 -168.5 46.5t-56.5 158.5t55 159.5t164 47.5h159v-840zM658 -150h-143v840h143v-840z" />
    <glyph glyph-name="periodcentered" unicode="&#xb7;" horiz-adv-x="287" 
d="M234 275q0 -87 -90 -87q-91 0 -91 87q0 86 91 86q90 0 90 -86z" />
    <glyph glyph-name="onesuperior" unicode="&#xb9;" horiz-adv-x="331" 
d="M22 592v127l105 81h131v-425h-131v302z" />
    <glyph glyph-name="ordmasculine" unicode="&#xba;" horiz-adv-x="528" 
d="M264 310q-113 0 -170 53.5t-57 174.5q0 120 57 173t170 53t170 -53t57 -173q0 -121 -57 -174.5t-170 -53.5zM264 409q43 0 64 21t21 70v79q0 46 -21 66t-64 20t-64 -20t-21 -66v-80q0 -48 21 -69t64 -21z" />
    <glyph glyph-name="guillemotright" unicode="&#xbb;" horiz-adv-x="560" 
d="M299 169l113 85l-113 86v155l223 -180v-117l-223 -180v151zM52 169l113 85l-113 86v155l223 -180v-117l-223 -180v151z" />
    <glyph glyph-name="onequarter" unicode="&#xbc;" horiz-adv-x="962" 
d="M22 542v127l105 81h131v-425h-131v302zM113 0l534 750h141l-534 -750h-141zM686 425h182v-250h66v-100h-66v-75h-124v75h-227v91zM636 175h108v166z" />
    <glyph glyph-name="onehalf" unicode="&#xbd;" horiz-adv-x="1006" 
d="M22 542v127l105 81h131v-425h-131v302zM113 0l534 750h141l-534 -750h-141zM768 342q-52 0 -55 -44h-132q7 140 185 140q187 0 187 -131q0 -42 -22 -71t-55 -44t-66.5 -26t-60.5 -26t-33 -36h237v-104h-370v61q0 52 24.5 88.5t59.5 54.5t70 30.5t59.5 26t24.5 31.5v12
q0 38 -53 38z" />
    <glyph glyph-name="threequarters" unicode="&#xbe;" horiz-adv-x="1057" 
d="M205 0l534 750h141l-534 -750h-141zM782 425h182v-250h66v-100h-66v-75h-124v75h-227v91zM732 175h108v166zM225 407q60 0 60 41v12q0 35 -63 35h-42v96h41q48 0 48 29v12q0 36 -48 36q-25 0 -37 -8t-16 -29h-128q5 132 183 132q82 0 129.5 -29.5t47.5 -85.5
q0 -78 -87 -101q103 -20 103 -100q0 -65 -48 -100t-142 -35t-143 33t-53 105h131q11 -43 64 -43z" />
    <glyph glyph-name="Edieresis" unicode="&#xcb;" horiz-adv-x="611" 
d="M568 0h-498v690h494v-137h-327v-133h246v-134h-246v-149h331v-137zM520 838q0 -83 -84 -83q-85 0 -85 83q0 39 22 60t63 21q40 0 62 -21t22 -60zM283 838q0 -83 -85 -83q-84 0 -84 83q0 81 84 81q41 0 63 -21t22 -60z" />
    <glyph glyph-name="multiply" unicode="&#xd7;" 
d="M61 186l165 165l-165 166l99 99l165 -166l166 166l99 -99l-166 -166l166 -165l-99 -99l-166 165l-165 -165z" />
    <glyph glyph-name="edieresis" unicode="&#xeb;" horiz-adv-x="582" 
d="M292 99q86 0 91 72h163q-20 -184 -254 -184q-129 0 -192 65t-63 201q0 138 63 204t192 66q128 0 190.5 -59.5t62.5 -190.5v-31h-348v-31q0 -112 95 -112zM291 411q-44 0 -67 -18.5t-27 -59.5h183q-3 42 -24 60t-65 18zM479 668q0 -39 -21 -59.5t-59 -20.5q-81 0 -81 80
t81 80q38 0 59 -20.5t21 -59.5zM265 668q0 -80 -81 -80t-81 80t81 80t81 -80z" />
    <glyph glyph-name="divide" unicode="&#xf7;" 
d="M414 570q0 -83 -89 -83q-88 0 -88 83q0 82 88 82q89 0 89 -82zM414 133q0 -83 -89 -83q-88 0 -88 83t88 83q89 0 89 -83zM586 281h-522v141h522v-141z" />
    <glyph glyph-name="dotlessi" unicode="&#x131;" horiz-adv-x="282" 
d="M222 0h-162v510h162v-510z" />
    <glyph glyph-name="dotlessj" unicode="&#x237;" horiz-adv-x="282" 
d="M-44 -71h44q33 0 46.5 15t13.5 49v517h162v-538q0 -93 -34 -132.5t-125 -39.5h-107v129z" />
    <glyph glyph-name="uni02BC" unicode="&#x2bc;" horiz-adv-x="287" 
d="M142 703q92 0 92 -92v-65q0 -90 -35 -125t-120 -35v83q37 0 51 13.5t14 41.5v6h-3q-88 0 -88 90q0 83 89 83z" />
    <glyph glyph-name="dotaccent" unicode="&#x2d9;" horiz-adv-x="290" 
d="M233 668q0 -84 -88 -84t-88 84q0 83 88 83t88 -83z" />
    <glyph glyph-name="afii10023" unicode="&#x401;" horiz-adv-x="611" 
d="M568 0h-498v690h494v-137h-327v-133h246v-134h-246v-149h331v-137zM520 838q0 -83 -84 -83q-85 0 -85 83q0 39 22 60t63 21q40 0 62 -21t22 -60zM283 838q0 -83 -85 -83q-84 0 -84 83q0 81 84 81q41 0 63 -21t22 -60z" />
    <glyph glyph-name="afii10053" unicode="&#x404;" horiz-adv-x="702" 
d="M359 -13q-158 0 -237.5 85t-79.5 275q0 186 80 271t237 85q139 0 214.5 -56.5t90.5 -184.5h-172q-7 59 -40 83.5t-93 24.5q-69 0 -105 -35t-40 -119h228v-128h-228q1 -91 37 -129.5t108 -38.5q58 0 91 24t43 84h172q-15 -126 -91.5 -183.5t-214.5 -57.5z" />
    <glyph glyph-name="afii10055" unicode="&#x406;" horiz-adv-x="307" 
d="M237 0h-167v690h167v-690z" />
    <glyph glyph-name="afii10056" unicode="&#x407;" horiz-adv-x="307" 
d="M295 836q0 -84 -66 -84q-65 0 -65 84q0 83 65 83q66 0 66 -83zM143 836q0 -84 -66 -84q-65 0 -65 84q0 83 65 83q66 0 66 -83zM237 0h-167v690h167v-690z" />
    <glyph glyph-name="afii10057" unicode="&#x408;" horiz-adv-x="382" 
d="M147 211v479h167v-543q0 -75 -38 -111t-128 -36h-125v134h55q37 0 53 18.5t16 58.5z" />
    <glyph glyph-name="afii10062" unicode="&#x40e;" horiz-adv-x="680" 
d="M193 0l80 175l-263 515h175l170 -337l155 337h160l-316 -690h-161zM412 908h142q0 -170 -204 -170q-105 0 -155 42t-50 128h142q0 -40 15 -57t48 -17t47.5 17t14.5 57z" />
    <glyph glyph-name="afii10017" unicode="&#x410;" horiz-adv-x="710" 
d="M229 690h245l224 -690h-175l-49 152h-262l-47 -152h-153zM341 568l-90 -289h182z" />
    <glyph glyph-name="afii10018" unicode="&#x411;" horiz-adv-x="671" 
d="M631 220q0 -105 -57 -162.5t-171 -57.5h-333v690h514v-137h-350v-124h169q114 0 171 -54t57 -155zM459 233q0 71 -83 71h-142v-172h142q83 0 83 70v31z" />
    <glyph glyph-name="afii10019" unicode="&#x412;" horiz-adv-x="671" 
d="M634 201q0 -98 -57.5 -149.5t-171.5 -51.5h-335v690h335q101 0 155 -43.5t54 -126.5q0 -118 -111 -156q131 -35 131 -163zM462 227q0 72 -94 72h-134v-179h134q94 0 94 74v33zM443 505q0 31 -22 48t-62 17h-125v-160h125q84 0 84 69v26z" />
    <glyph glyph-name="afii10020" unicode="&#x413;" horiz-adv-x="559" 
d="M70 690h469v-141h-302v-549h-167v690z" />
    <glyph glyph-name="afii10021" unicode="&#x414;" horiz-adv-x="769" 
d="M7 -150v291h71q22 39 39 114.5t17 173.5v261h532v-549h90v-291h-157v150h-435v-150h-157zM499 549h-211v-120q0 -200 -46 -288h257v408z" />
    <glyph glyph-name="afii10022" unicode="&#x415;" horiz-adv-x="611" 
d="M568 0h-498v690h494v-137h-327v-133h246v-134h-246v-149h331v-137z" />
    <glyph glyph-name="afii10024" unicode="&#x416;" horiz-adv-x="1035" 
d="M599 690v-269h51l178 269h171l-216 -327l240 -363h-190l-185 279h-49v-279h-167v279h-49l-184 -279h-187l235 355l-222 335h179l177 -269h51v269h167z" />
    <glyph glyph-name="afii10025" unicode="&#x417;" horiz-adv-x="675" 
d="M344 117q62 0 92.5 18t30.5 62v21q0 72 -106 72h-104v127h104q43 0 66.5 17t23.5 49v19q0 71 -110 71q-58 0 -88.5 -21.5t-37.5 -73.5h-172q12 117 86 171t210 54q284 0 284 -190q0 -54 -34.5 -94t-97.5 -58q71 -15 109.5 -59t38.5 -106q0 -209 -295 -209
q-286 0 -306 228h172q4 -51 36.5 -74.5t97.5 -23.5z" />
    <glyph glyph-name="afii10026" unicode="&#x418;" horiz-adv-x="744" 
d="M259 0h-189v690h167v-458l248 458h189v-690h-167v458z" />
    <glyph glyph-name="afii10027" unicode="&#x419;" horiz-adv-x="744" 
d="M259 0h-189v690h167v-458l248 458h189v-690h-167v458zM432 908h142q0 -170 -204 -170q-105 0 -155 42t-50 128h142q0 -40 15 -57t48 -17t47.5 17t14.5 57z" />
    <glyph glyph-name="afii10028" unicode="&#x41a;" horiz-adv-x="684" 
d="M237 690v-271h44l194 271h179l-236 -332l257 -358h-195l-200 277h-43v-277h-167v690h167z" />
    <glyph glyph-name="afii10029" unicode="&#x41b;" horiz-adv-x="727" 
d="M657 0h-167v549h-200v-163q0 -154 -24.5 -238t-73 -116t-135.5 -32h-39v154h18q58 0 79 50.5t21 181.5v304h521v-690z" />
    <glyph glyph-name="afii10030" unicode="&#x41c;" horiz-adv-x="914" 
d="M343 690l123 -442l124 442h254v-690h-167v560l-134 -469h-184l-134 472v-563h-155v690h273z" />
    <glyph glyph-name="afii10031" unicode="&#x41d;" horiz-adv-x="727" 
d="M657 0h-167v281h-253v-281h-167v690h167v-268h253v268h167v-690z" />
    <glyph glyph-name="afii10032" unicode="&#x41e;" horiz-adv-x="760" 
d="M719 352q0 -196 -84 -280.5t-255 -84.5t-254.5 84.5t-83.5 280.5q0 188 83.5 269.5t254.5 81.5t255 -81.5t84 -269.5zM547 303v85q0 96 -40.5 139t-126.5 43t-126 -43t-40 -139v-85q0 -100 39.5 -141.5t126.5 -41.5t127 41.5t40 141.5z" />
    <glyph glyph-name="afii10033" unicode="&#x41f;" horiz-adv-x="717" 
d="M647 0h-167v549h-243v-549h-167v690h577v-690z" />
    <glyph glyph-name="afii10034" unicode="&#x420;" horiz-adv-x="657" 
d="M630 455q0 -229 -239 -229h-154v-226h-167v690h321q120 0 179.5 -61t59.5 -174zM458 439v34q0 78 -86 78h-135v-186h135q42 0 64 19.5t22 54.5z" />
    <glyph glyph-name="afii10035" unicode="&#x421;" horiz-adv-x="702" 
d="M359 -13q-158 0 -237.5 85t-79.5 275q0 186 80 271t237 85q139 0 214.5 -56.5t90.5 -184.5h-172q-7 59 -40 83.5t-93 24.5q-72 0 -108.5 -39.5t-36.5 -133.5v-102q0 -94 36 -134.5t109 -40.5q58 0 91 24t43 84h172q-15 -126 -91.5 -183.5t-214.5 -57.5z" />
    <glyph glyph-name="afii10036" unicode="&#x422;" horiz-adv-x="617" 
d="M597 549h-205v-549h-167v549h-205v141h577v-141z" />
    <glyph glyph-name="afii10037" unicode="&#x423;" horiz-adv-x="680" 
d="M193 0l80 175l-263 515h175l170 -337l155 337h160l-316 -690h-161z" />
    <glyph glyph-name="afii10038" unicode="&#x424;" horiz-adv-x="898" 
d="M533 90v-103h-168v103q-166 3 -249 68.5t-83 203.5q0 143 82 206.5t250 66.5v68h168v-68q169 -3 250.5 -66.5t81.5 -206.5q0 -139 -82.5 -204t-249.5 -68zM365 221v283q-85 -1 -122 -30.5t-37 -91.5v-40q0 -67 34.5 -93.5t124.5 -27.5zM533 504v-283q90 1 124.5 27.5
t34.5 93.5v40q0 63 -36 92t-123 30z" />
    <glyph glyph-name="afii10039" unicode="&#x425;" horiz-adv-x="671" 
d="M195 690l145 -221l137 221h167l-215 -344l229 -346h-181l-150 224l-141 -224h-168l221 346l-226 344h182z" />
    <glyph glyph-name="afii10040" unicode="&#x426;" horiz-adv-x="751" 
d="M70 690h167v-549h243v549h167v-549h90v-291h-157v150h-510v690z" />
    <glyph glyph-name="afii10041" unicode="&#x427;" horiz-adv-x="707" 
d="M634 690v-690h-167v251q-70 -6 -129 -6q-143 1 -211.5 58t-68.5 190v197h167v-180q0 -73 29.5 -100t97.5 -27q58 0 115 5v302h167z" />
    <glyph glyph-name="afii10042" unicode="&#x428;" horiz-adv-x="1016" 
d="M779 690h167v-690h-876v690h167v-549h187v549h168v-549h187v549z" />
    <glyph glyph-name="afii10043" unicode="&#x429;" horiz-adv-x="1049" 
d="M779 690h167v-549h90v-291h-157v150h-809v690h167v-549h187v549h168v-549h187v549z" />
    <glyph glyph-name="afii10044" unicode="&#x42a;" horiz-adv-x="748" 
d="M722 242q0 -117 -60.5 -179.5t-182.5 -62.5h-317v549h-142v141h309v-208h150q122 0 182.5 -62t60.5 -178zM550 261q0 39 -23 60.5t-67 21.5h-131v-204h131q42 0 66 23t24 60v39z" />
    <glyph glyph-name="afii10045" unicode="&#x42b;" horiz-adv-x="938" 
d="M630 242q0 -117 -60.5 -179.5t-182.5 -62.5h-317v690h167v-208h150q122 0 182.5 -62t60.5 -178zM458 261q0 39 -23 60.5t-67 21.5h-131v-204h131q42 0 66 23t24 60v39zM868 0h-167v690h167v-690z" />
    <glyph glyph-name="afii10046" unicode="&#x42c;" horiz-adv-x="657" 
d="M630 242q0 -117 -60.5 -179.5t-182.5 -62.5h-317v690h167v-208h150q122 0 182.5 -62t60.5 -178zM458 261q0 39 -23 60.5t-67 21.5h-131v-204h131q42 0 66 23t24 60v39z" />
    <glyph glyph-name="afii10047" unicode="&#x42d;" horiz-adv-x="702" 
d="M343 -13q-282 0 -306 241h172q8 -60 41.5 -84t92.5 -24q72 0 108 38.5t37 129.5h-228v128h227q-4 84 -39.5 119t-103.5 35q-59 0 -92 -25t-40 -83h-172q23 241 304 241q158 0 237 -84t79 -272q0 -193 -79 -276.5t-238 -83.5z" />
    <glyph glyph-name="afii10048" unicode="&#x42e;" horiz-adv-x="1027" 
d="M986 347q0 -193 -81 -276.5t-248 -83.5q-154 0 -234 70t-92 231h-94v-288h-167v690h167v-268h95q15 148 96 214.5t229 66.5q166 0 247.5 -83t81.5 -273zM814 300v92q0 93 -38.5 135.5t-118.5 42.5t-118 -42t-38 -136v-92q0 -98 37 -139t119 -41t119.5 41t37.5 139z" />
    <glyph glyph-name="afii10049" unicode="&#x42f;" horiz-adv-x="681" 
d="M55 464q0 105 66 165.5t185 60.5h305v-690h-168v239h-109l-118 -239h-176l131 265q-116 53 -116 199zM228 480v-28q0 -38 23 -58.5t66 -20.5h126v182h-126q-89 0 -89 -75z" />
    <glyph glyph-name="afii10065" unicode="&#x430;" horiz-adv-x="593" 
d="M40 140q0 80 52 119t163 48l121 9v21q0 40 -17.5 57t-54.5 17q-36 0 -54 -13.5t-23 -43.5h-168q12 169 244 169q235 0 235 -186v-337h-156v62q-52 -75 -171 -75q-81 0 -126 42t-45 111zM274 96q49 0 75.5 25t26.5 71v32l-100 -9q-36 -3 -53 -15t-17 -37v-16q0 -51 68 -51
z" />
    <glyph glyph-name="afii10066" unicode="&#x431;" horiz-adv-x="611" 
d="M38 303q0 102 12.5 174t36.5 120t65 76t91.5 40.5t122.5 14.5q124 2 175 10v-139q-27 -5 -167 -9q-57 -2 -90 -9t-60 -28t-40 -59.5t-18 -102.5q54 112 193 112q110 0 163 -62t53 -192q0 -134 -66.5 -198t-202.5 -64q-140 0 -204 71.5t-64 244.5zM306 102q55 0 78 24.5
t23 88.5v60q0 62 -23.5 87.5t-77.5 25.5q-53 0 -77 -25.5t-24 -87.5v-60q0 -64 23.5 -88.5t77.5 -24.5z" />
    <glyph glyph-name="afii10067" unicode="&#x432;" horiz-adv-x="588" 
d="M552 144q0 -144 -191 -144h-301v510h265q110 0 159 -31.5t49 -93.5q0 -95 -119 -118q138 -20 138 -123zM384 153v17q0 49 -66 49h-99v-115h99q66 0 66 49zM368 362q0 44 -58 44h-91v-101h91q58 0 58 43v14z" />
    <glyph glyph-name="afii10068" unicode="&#x433;" horiz-adv-x="466" 
d="M60 510h386v-129h-224v-381h-162v510z" />
    <glyph glyph-name="afii10069" unicode="&#x434;" horiz-adv-x="653" 
d="M7 -140v269h58q36 64 36 224v157h460v-381h78v-269h-152v140h-328v-140h-152zM399 381h-149v-29q0 -156 -32 -223h181v252z" />
    <glyph glyph-name="afii10070" unicode="&#x435;" horiz-adv-x="582" 
d="M292 99q86 0 91 72h163q-20 -184 -254 -184q-129 0 -192 65t-63 201q0 138 63 204t192 66q128 0 190.5 -59.5t62.5 -190.5v-31h-348v-31q0 -112 95 -112zM291 411q-44 0 -67 -18.5t-27 -59.5h183q-3 42 -24 60t-65 18z" />
    <glyph glyph-name="afii10072" unicode="&#x436;" horiz-adv-x="824" 
d="M495 0h-165v191h-39l-110 -191h-173l153 262l-144 248h165l110 -191h38v191h165v-191h37l111 191h159l-142 -243l156 -267h-173l-110 191h-38v-191z" />
    <glyph glyph-name="afii10073" unicode="&#x437;" horiz-adv-x="585" 
d="M299 209h-75v106h68q73 0 73 46v13q0 44 -71 44q-41 0 -61.5 -16t-25.5 -49h-167q8 91 73 130.5t179 39.5q240 0 240 -140q0 -81 -102 -110q58 -13 86 -45.5t28 -75.5q0 -165 -252 -165q-119 0 -184 40.5t-76 134.5h167q7 -37 28.5 -53.5t64.5 -16.5q44 0 64 13t20 41v13
q0 27 -18.5 38.5t-58.5 11.5z" />
    <glyph glyph-name="afii10074" unicode="&#x438;" horiz-adv-x="632" 
d="M572 0h-162v327l-167 -327h-183v510h162v-327l167 327h183v-510z" />
    <glyph glyph-name="afii10075" unicode="&#x439;" horiz-adv-x="632" 
d="M572 0h-162v327l-167 -327h-183v510h162v-327l167 327h183v-510zM373 749h130q0 -168 -187 -168t-187 168h130q0 -45 13.5 -62t43.5 -17q31 0 44 16.5t13 62.5z" />
    <glyph glyph-name="afii10076" unicode="&#x43a;" horiz-adv-x="593" 
d="M222 0h-162v510h162v-190h39l127 190h179l-162 -243l183 -267h-195l-131 191h-40v-191z" />
    <glyph glyph-name="afii10077" unicode="&#x43b;" horiz-adv-x="597" 
d="M17 0v142h17q44 0 55 24t11 105v239h438v-510h-163v381h-126v-122q0 -148 -40 -203.5t-159 -55.5h-33z" />
    <glyph glyph-name="afii10078" unicode="&#x43c;" horiz-adv-x="775" 
d="M301 510l90 -312l90 312h234v-510h-156v392l-101 -350h-152l-102 351v-393h-144v510h241z" />
    <glyph glyph-name="afii10079" unicode="&#x43d;" horiz-adv-x="615" 
d="M555 0h-162v192h-171v-192h-162v510h162v-189h171v189h162v-510z" />
    <glyph glyph-name="afii10080" unicode="&#x43e;" horiz-adv-x="610" 
d="M305 -13q-140 0 -204 61.5t-64 206.5q0 144 64 206t204 62q139 0 203.5 -62t64.5 -206q0 -145 -64.5 -206.5t-203.5 -61.5zM305 102q52 0 76.5 25t24.5 84v93q0 56 -24.5 80t-76.5 24t-76.5 -24t-24.5 -80v-93q0 -59 24.5 -84t76.5 -25z" />
    <glyph glyph-name="afii10081" unicode="&#x43f;" horiz-adv-x="605" 
d="M545 0h-162v381h-161v-381h-162v510h485v-510z" />
    <glyph glyph-name="afii10082" unicode="&#x440;" horiz-adv-x="628" 
d="M222 -200h-162v710h157v-62q51 75 164 75q210 0 210 -270q0 -131 -53 -198.5t-157 -67.5q-108 0 -159 67v-254zM323 102q52 0 76.5 25.5t24.5 79.5v101q0 100 -100 100q-51 0 -75.5 -22.5t-26.5 -68.5v-110q0 -54 24.5 -79.5t76.5 -25.5z" />
    <glyph glyph-name="afii10083" unicode="&#x441;" horiz-adv-x="559" 
d="M527 166q-11 -91 -70.5 -135t-172.5 -44q-128 0 -187.5 63t-59.5 205q0 141 59.5 204.5t187.5 63.5q111 0 172 -41.5t68 -137.5h-165q-6 64 -75 64q-41 0 -60.5 -23t-19.5 -74v-106q0 -103 80 -103q71 0 78 64h165z" />
    <glyph glyph-name="afii10084" unicode="&#x442;" horiz-adv-x="520" 
d="M500 381h-159v-381h-162v381h-159v129h480v-129z" />
    <glyph glyph-name="afii10085" unicode="&#x443;" horiz-adv-x="567" 
d="M76 -75h48q44 0 61 10.5t30 46.5l1 3l-204 525h165l116 -311l113 311h149l-208 -569q-30 -83 -71 -112t-124 -29h-76v125z" />
    <glyph glyph-name="afii10086" unicode="&#x444;" horiz-adv-x="817" 
d="M37 255q0 268 290 268v207h163v-207q290 0 290 -268t-290 -268v-187h-163v187q-145 0 -217.5 65t-72.5 203zM204 208q0 -54 28.5 -79t94.5 -25v302q-66 0 -94.5 -23t-28.5 -79v-96zM490 406v-302q65 0 94 25t29 79v96q0 57 -28.5 79.5t-94.5 22.5z" />
    <glyph glyph-name="afii10087" unicode="&#x445;" horiz-adv-x="567" 
d="M194 257l-177 253h169l101 -145l94 145h156l-167 -253l181 -257h-170l-105 150l-99 -150h-156z" />
    <glyph glyph-name="afii10088" unicode="&#x446;" horiz-adv-x="639" 
d="M62 510h162v-381h161v381h162v-381h78v-269h-152v140h-411v510z" />
    <glyph glyph-name="afii10089" unicode="&#x447;" horiz-adv-x="587" 
d="M527 510v-510h-162v184q-42 -8 -93 -8q-118 0 -171 47t-53 154v133h162v-120q0 -50 18 -68t62 -18q45 0 75 6v200h162z" />
    <glyph glyph-name="afii10090" unicode="&#x448;" horiz-adv-x="878" 
d="M818 510v-510h-758v510h162v-381h136v381h162v-381h136v381h162z" />
    <glyph glyph-name="afii10091" unicode="&#x449;" horiz-adv-x="908" 
d="M818 510v-381h78v-269h-152v140h-684v510h162v-381h136v381h162v-381h136v381h162z" />
    <glyph glyph-name="afii10092" unicode="&#x44a;" horiz-adv-x="628" 
d="M134 0v381h-117v129h279v-145h119q93 0 142 -47t49 -133q0 -90 -48.5 -137.5t-142.5 -47.5h-281zM439 197q0 53 -61 53h-82v-135h82q61 0 61 57v25z" />
    <glyph glyph-name="afii10093" unicode="&#x44b;" horiz-adv-x="809" 
d="M60 0v510h162v-145h119q93 0 142 -47t49 -133q0 -90 -48.5 -137.5t-142.5 -47.5h-281zM365 197q0 53 -61 53h-82v-135h82q61 0 61 57v25zM749 0h-162v510h162v-510z" />
    <glyph glyph-name="afii10094" unicode="&#x44c;" horiz-adv-x="552" 
d="M60 0v510h162v-145h119q93 0 142 -47t49 -133q0 -90 -48.5 -137.5t-142.5 -47.5h-281zM365 197q0 53 -61 53h-82v-135h82q61 0 61 57v25z" />
    <glyph glyph-name="afii10095" unicode="&#x44d;" horiz-adv-x="570" 
d="M32 166h165q7 -64 86 -64q44 0 65 24t21 79h-150v107h150q-1 96 -86 96q-76 0 -83 -64h-166q14 179 252 179q129 0 188 -62.5t59 -205.5t-59 -205.5t-188 -62.5q-232 0 -254 179z" />
    <glyph glyph-name="afii10096" unicode="&#x44e;" horiz-adv-x="853" 
d="M553 -13q-120 0 -184.5 49t-76.5 162h-70v-198h-162v510h162v-188h72q14 106 78.5 153.5t180.5 47.5q132 0 197.5 -62.5t65.5 -205.5q0 -144 -65.5 -206t-197.5 -62zM553 102q49 0 72.5 25t23.5 84v93q0 56 -23.5 80t-72.5 24q-50 0 -73 -24t-23 -80v-93q0 -59 23 -84
t73 -25z" />
    <glyph glyph-name="afii10097" unicode="&#x44f;" horiz-adv-x="584" 
d="M204 0h-167l108 195q-104 35 -104 145q0 82 52.5 126t150.5 44h280v-510h-162v165h-66zM209 325q0 -23 15 -36.5t42 -13.5h96v125h-96q-57 0 -57 -49v-26z" />
    <glyph glyph-name="afii10071" unicode="&#x451;" horiz-adv-x="582" 
d="M292 99q86 0 91 72h163q-20 -184 -254 -184q-129 0 -192 65t-63 201q0 138 63 204t192 66q128 0 190.5 -59.5t62.5 -190.5v-31h-348v-31q0 -112 95 -112zM291 411q-44 0 -67 -18.5t-27 -59.5h183q-3 42 -24 60t-65 18zM479 668q0 -39 -21 -59.5t-59 -20.5q-81 0 -81 80
t81 80q38 0 59 -20.5t21 -59.5zM265 668q0 -80 -81 -80t-81 80t81 80t81 -80z" />
    <glyph glyph-name="afii10101" unicode="&#x454;" horiz-adv-x="570" 
d="M372 166h166q-22 -179 -254 -179q-128 0 -188 63t-59 205q0 142 59.5 205t188.5 63q238 0 250 -179h-166q-4 64 -81 64q-88 0 -88 -96h145v-107h-145q0 -103 87 -103q79 0 85 64z" />
    <glyph glyph-name="afii10103" unicode="&#x456;" horiz-adv-x="282" 
d="M222 0h-162v510h162v-510zM229 668q0 -84 -88 -84t-88 84q0 83 88 83t88 -83z" />
    <glyph glyph-name="afii10104" unicode="&#x457;" horiz-adv-x="282" 
d="M275 668q0 -84 -63 -84q-65 0 -65 84q0 83 65 83q63 0 63 -83zM135 668q0 -84 -64 -84t-64 84q0 83 64 83t64 -83zM222 0h-162v510h162v-510z" />
    <glyph glyph-name="afii10105" unicode="&#x458;" horiz-adv-x="282" 
d="M-44 -71h44q33 0 46.5 15t13.5 49v517h162v-538q0 -93 -34 -132.5t-125 -39.5h-107v129zM229 668q0 -84 -88 -84t-88 84q0 83 88 83t88 -83z" />
    <glyph glyph-name="afii10110" unicode="&#x45e;" horiz-adv-x="567" 
d="M76 -75h48q44 0 61 10.5t30 46.5l1 3l-204 525h165l116 -311l113 311h149l-208 -569q-30 -83 -71 -112t-124 -29h-76v125zM343 749h130q0 -168 -187 -168t-187 168h130q0 -45 13.5 -62t43.5 -17q31 0 44 16.5t13 62.5z" />
    <glyph glyph-name="afii10050" unicode="&#x490;" horiz-adv-x="559" 
d="M70 690h312v150h157v-291h-302v-549h-167v690z" />
    <glyph glyph-name="afii10098" unicode="&#x491;" horiz-adv-x="466" 
d="M60 510h234v140h152v-269h-224v-381h-162v510z" />
    <glyph glyph-name="enquad" unicode="&#x2000;" horiz-adv-x="500" 
 />
    <glyph glyph-name="emquad" unicode="&#x2001;" horiz-adv-x="1000" 
 />
    <glyph glyph-name="enspace" unicode="&#x2002;" horiz-adv-x="500" 
 />
    <glyph glyph-name="emspace" unicode="&#x2003;" horiz-adv-x="1000" 
 />
    <glyph glyph-name="thirdemspace" unicode="&#x2004;" horiz-adv-x="300" 
 />
    <glyph glyph-name="quarteremspace" unicode="&#x2005;" horiz-adv-x="250" 
 />
    <glyph glyph-name="sixthemspace" unicode="&#x2006;" horiz-adv-x="100" 
 />
    <glyph glyph-name="figurespace" unicode="&#x2007;" horiz-adv-x="200" 
 />
    <glyph glyph-name="punctuationspace" unicode="&#x2008;" horiz-adv-x="210" 
 />
    <glyph glyph-name="thinspace" unicode="&#x2009;" horiz-adv-x="150" 
 />
    <glyph glyph-name="hairspace" unicode="&#x200a;" horiz-adv-x="35" 
 />
    <glyph glyph-name="zerowidthspace" unicode="&#x200b;" horiz-adv-x="0" 
 />
    <glyph glyph-name="endash" unicode="&#x2013;" horiz-adv-x="653" 
d="M603 195h-553v126h553v-126z" />
    <glyph glyph-name="emdash" unicode="&#x2014;" horiz-adv-x="893" 
d="M823 195h-753v126h753v-126z" />
    <glyph glyph-name="quoteleft" unicode="&#x2018;" horiz-adv-x="287" 
d="M145 388q-92 0 -92 92v65q0 89 35.5 124.5t119.5 35.5v-83q-37 0 -51 -13.5t-14 -41.5v-6h3q88 0 88 -90q0 -83 -89 -83z" />
    <glyph glyph-name="quoteright" unicode="&#x2019;" horiz-adv-x="287" 
d="M142 703q92 0 92 -92v-65q0 -90 -35 -125t-120 -35v83q37 0 51 13.5t14 41.5v6h-3q-88 0 -88 90q0 83 89 83z" />
    <glyph glyph-name="quotesinglbase" unicode="&#x201a;" horiz-adv-x="287" 
d="M142 160q92 0 92 -92v-65q0 -89 -35 -124.5t-120 -35.5v83q37 0 51 13.5t14 41.5v6h-3q-88 0 -88 90q0 83 89 83z" />
    <glyph glyph-name="quotedblleft" unicode="&#x201c;" horiz-adv-x="522" 
d="M380 388q-92 0 -92 92v65q0 89 35 124.5t120 35.5v-83q-37 0 -51 -13.5t-14 -41.5v-6h3q88 0 88 -90q0 -83 -89 -83zM145 388q-92 0 -92 92v65q0 89 35.5 124.5t119.5 35.5v-83q-37 0 -51 -13.5t-14 -41.5v-6h3q88 0 88 -90q0 -83 -89 -83z" />
    <glyph glyph-name="quotedblright" unicode="&#x201d;" horiz-adv-x="522" 
d="M142 703q92 0 92 -92v-65q0 -90 -35 -125t-120 -35v83q37 0 51 13.5t14 41.5v6h-3q-88 0 -88 90q0 83 89 83zM377 703q92 0 92 -92v-65q0 -90 -35.5 -125t-119.5 -35v83q37 0 51 13.5t14 41.5v6h-3q-88 0 -88 90q0 83 89 83z" />
    <glyph glyph-name="quotedblbase" unicode="&#x201e;" horiz-adv-x="522" 
d="M142 160q92 0 92 -92v-65q0 -89 -35 -124.5t-120 -35.5v83q37 0 51 13.5t14 41.5v6h-3q-88 0 -88 90q0 83 89 83zM377 160q92 0 92 -92v-65q0 -89 -35.5 -124.5t-119.5 -35.5v83q37 0 51 13.5t14 41.5v6h-3q-88 0 -88 90q0 83 89 83z" />
    <glyph glyph-name="bullet" unicode="&#x2022;" horiz-adv-x="450" 
d="M370 359q0 -140 -144 -140q-146 0 -146 140q0 139 146 139q144 0 144 -139z" />
    <glyph glyph-name="ellipsis" unicode="&#x2026;" horiz-adv-x="779" 
d="M234 74q0 -87 -90 -87q-91 0 -91 87q0 86 91 86q90 0 90 -86zM480 74q0 -87 -90 -87q-91 0 -91 87q0 86 91 86q90 0 90 -86zM726 74q0 -87 -90 -87q-91 0 -91 87q0 86 91 86q90 0 90 -86z" />
    <glyph glyph-name="nonbreakingspace.narrow" unicode="&#x202f;" horiz-adv-x="100" 
 />
    <glyph glyph-name="perthousand" unicode="&#x2030;" horiz-adv-x="1433" 
d="M1202 -14q-94 0 -148 49.5t-54 144.5t54 144.5t148 49.5t148 -49.5t54 -144.5t-54 -144.5t-148 -49.5zM1202 93q36 0 52 15.5t16 58.5v26q0 40 -16.5 56.5t-51.5 16.5t-51.5 -16t-16.5 -57v-26q0 -42 16 -58t52 -16zM810 690l-477 -690h-146l474 690h149zM232 316
q-94 0 -148 49t-54 145q0 94 54 143.5t148 49.5t148 -49.5t54 -143.5q0 -96 -54 -145t-148 -49zM232 423q36 0 52 15.5t16 57.5v27q0 40 -16.5 56.5t-51.5 16.5t-51.5 -16.5t-16.5 -56.5v-27q0 -42 16 -57.5t52 -15.5zM767 -14q-94 0 -148 49.5t-54 144.5t54 144.5t148 49.5
q93 0 147 -49.5t54 -144.5t-54 -144.5t-147 -49.5zM767 93q36 0 52 16t16 58v26q0 40 -16.5 56.5t-51.5 16.5q-36 0 -52.5 -16t-16.5 -57v-26q0 -42 16.5 -58t52.5 -16z" />
    <glyph glyph-name="minute" unicode="&#x2032;" horiz-adv-x="303" 
d="M114 690h129l-69 -267h-114z" />
    <glyph glyph-name="second" unicode="&#x2033;" horiz-adv-x="504" 
d="M114 690h129l-69 -267h-114zM315 690h129l-69 -267h-114z" />
    <glyph glyph-name="guilsinglleft" unicode="&#x2039;" horiz-adv-x="313" 
d="M261 344l-113 -85l113 -86v-155l-223 180v117l223 180v-151z" />
    <glyph glyph-name="guilsinglright" unicode="&#x203a;" horiz-adv-x="313" 
d="M52 169l113 85l-113 86v155l223 -180v-117l-223 -180v151z" />
    <glyph glyph-name="fraction" unicode="&#x2044;" horiz-adv-x="355" 
d="M-170 0l534 750h141l-534 -750h-141z" />
    <glyph glyph-name="mathspacemedium" unicode="&#x205f;" horiz-adv-x="180" 
 />
    <glyph glyph-name="joinerspace" unicode="&#x2060;" horiz-adv-x="0" 
 />
    <glyph glyph-name="Euro" unicode="&#x20ac;" horiz-adv-x="731" 
d="M30 370v100h80q23 121 96.5 177t196.5 56q134 0 208 -52t87 -168h-172q-11 87 -123 87q-104 0 -125 -100h186v-100h-192v-50h192v-100h-186q12 -54 42.5 -77t82.5 -23q109 0 124 87h172q-28 -220 -296 -220q-124 0 -197 55t-96 178h-80v100h70v27v23h-70z" />
    <glyph glyph-name="uni20B4" unicode="&#x20b4;" horiz-adv-x="708" 
d="M353 108q91 0 106 50h172q-15 -171 -280 -171q-142 0 -209 40.5t-67 111.5q0 47 34 83h-59v100h608v-100h-372q-33 -16 -33 -48v-14q0 -52 100 -52zM356 582q-83 0 -98 -50h-172q7 83 76.5 127t194.5 44q134 0 199 -42t65 -117q0 -42 -27 -76h64v-93h-608v93h363
q30 15 30 45v14q0 55 -87 55z" />
    <glyph glyph-name="uni20B8" unicode="&#x20b8;" horiz-adv-x="625" 
d="M605 401h-209v-401h-167v401h-209v114h585v-114zM605 576h-585v114h585v-114z" />
    <glyph glyph-name="uni20BD" unicode="&#x20bd;" horiz-adv-x="720" 
d="M694 473q0 -97 -55.5 -149.5t-162.5 -52.5h-187v-62h239v-112h-239v-97h-167v97h-95v112h95v62h-95v125h95v294h354q106 0 162 -57t56 -160zM521 464v18q0 69 -78 69h-154v-155h154q78 0 78 68z" />
    <glyph glyph-name="afii61352" unicode="&#x2116;" horiz-adv-x="1192" 
d="M298 690l221 -480v480h156v-690h-229l-221 479v-479h-155v690h228zM947 316q-94 0 -148 49t-54 145q0 94 54 143.5t148 49.5t148 -49.5t54 -143.5q0 -96 -54 -145t-148 -49zM763 151v115h368v-115h-368zM947 423q35 0 51.5 16.5t16.5 56.5v27q0 42 -16 57.5t-52 15.5
t-52 -15.5t-16 -57.5v-27q0 -41 16.5 -57t51.5 -16z" />
    <glyph glyph-name="trademark" unicode="&#x2122;" horiz-adv-x="947" 
d="M600 380l-58 176v-229h-121v363h180l62 -183l62 183h172v-363h-129v226l-58 -173h-110zM377 598h-111v-271h-129v271h-115v92h355v-92z" />
    <glyph glyph-name="onethird" unicode="&#x2153;" horiz-adv-x="1003" 
d="M782 82q60 0 60 41v12q0 35 -63 35h-42v96h41q48 0 48 29v12q0 36 -48 36q-25 0 -37 -8t-16 -29h-128q5 132 183 132q82 0 129.5 -29.5t47.5 -85.5q0 -78 -87 -101q103 -20 103 -100q0 -65 -48 -100t-142 -35t-143 33t-53 105h131q11 -43 64 -43zM22 542v127l105 81h131
v-425h-131v302zM113 0l534 750h141l-534 -750h-141z" />
    <glyph glyph-name="twothirds" unicode="&#x2154;" horiz-adv-x="1131" 
d="M910 82q60 0 60 41v12q0 35 -63 35h-42v96h41q48 0 48 29v12q0 36 -48 36q-25 0 -37 -8t-16 -29h-128q5 132 183 132q82 0 129.5 -29.5t47.5 -85.5q0 -78 -87 -101q103 -20 103 -100q0 -65 -48 -100t-142 -35t-143 33t-53 105h131q11 -43 64 -43zM248 0l534 750h141
l-534 -750h-141zM214 667q-52 0 -55 -44h-132q7 140 185 140q187 0 187 -131q0 -42 -22 -71t-55 -44t-66.5 -26t-60.5 -26t-33 -36h237v-104h-370v61q0 52 24.5 88.5t59.5 54.5t70 30.5t59.5 26t24.5 31.5v12q0 38 -53 38z" />
    <glyph glyph-name="oneeighth" unicode="&#x215b;" horiz-adv-x="1023" 
d="M784 -13q-201 0 -201 133q0 78 89 103q-72 25 -72 93q0 61 49.5 91.5t134.5 30.5q86 0 135.5 -30t49.5 -92q0 -67 -72 -93q89 -26 89 -103q0 -133 -202 -133zM784 170q-69 0 -69 -42v-11q0 -40 69 -40q70 0 70 40v11q0 42 -70 42zM784 264q61 0 61 38v7q0 39 -61 39
q-58 0 -58 -39v-7q0 -38 58 -38zM22 542v127l105 81h131v-425h-131v302zM113 0l534 750h141l-534 -750h-141z" />
    <glyph glyph-name="threeeighths" unicode="&#x215c;" horiz-adv-x="1115" 
d="M209 0l534 750h141l-534 -750h-141zM225 407q60 0 60 41v12q0 35 -63 35h-42v96h41q48 0 48 29v12q0 36 -48 36q-25 0 -37 -8t-16 -29h-128q5 132 183 132q82 0 129.5 -29.5t47.5 -85.5q0 -78 -87 -101q103 -20 103 -100q0 -65 -48 -100t-142 -35t-143 33t-53 105h131
q11 -43 64 -43zM876 -13q-201 0 -201 133q0 78 89 103q-72 25 -72 93q0 61 49.5 91.5t134.5 30.5q86 0 135.5 -30t49.5 -92q0 -67 -72 -93q89 -26 89 -103q0 -133 -202 -133zM876 170q-69 0 -69 -42v-11q0 -40 69 -40q70 0 70 40v11q0 42 -70 42zM876 264q61 0 61 38v7
q0 39 -61 39q-58 0 -58 -39v-7q0 -38 58 -38z" />
    <glyph glyph-name="fiveeighths" unicode="&#x215d;" horiz-adv-x="1136" 
d="M232 0l534 750h141l-534 -750h-141zM897 -13q-201 0 -201 133q0 78 89 103q-72 25 -72 93q0 61 49.5 91.5t134.5 30.5q86 0 135.5 -30t49.5 -92q0 -67 -72 -93q89 -26 89 -103q0 -133 -202 -133zM897 170q-69 0 -69 -42v-11q0 -40 69 -40q70 0 70 40v11q0 42 -70 42z
M897 264q61 0 61 38v7q0 39 -61 39q-58 0 -58 -39v-7q0 -38 58 -38zM225 412q55 0 55 41v15q0 46 -56 46q-45 0 -67 -23l-113 21l21 238h318v-104h-221l-8 -75q35 30 98 30q79 0 120 -35.5t41 -102.5q0 -151 -186 -151t-197 131h133q8 -31 62 -31z" />
    <glyph glyph-name="seveneighths" unicode="&#x215e;" horiz-adv-x="994" 
d="M755 -13q-201 0 -201 133q0 78 89 103q-72 25 -72 93q0 61 49.5 91.5t134.5 30.5q86 0 135.5 -30t49.5 -92q0 -67 -72 -93q89 -26 89 -103q0 -133 -202 -133zM755 170q-69 0 -69 -42v-11q0 -40 69 -40q70 0 70 40v11q0 42 -70 42zM755 264q61 0 61 38v7q0 39 -61 39
q-58 0 -58 -39v-7q0 -38 58 -38zM84 0l534 750h141l-534 -750h-141zM20 646v104h343v-83l-175 -342h-129l164 321h-203z" />
    <glyph glyph-name="arrowleft" unicode="&#x2190;" horiz-adv-x="936" 
d="M866 295h-618l183 -127v-138l-361 252v129l360 255v-134l-177 -125h613v-112z" />
    <glyph glyph-name="arrowright" unicode="&#x2192;" horiz-adv-x="936" 
d="M70 405h618l-183 127v138l361 -252v-129l-360 -255v134l177 125h-613v112z" />
    <glyph glyph-name="minus" unicode="&#x2212;" 
d="M586 281h-522v141h522v-141z" />
    <glyph glyph-name="approxequal" unicode="&#x2248;" horiz-adv-x="647" 
d="M219 559q45 0 80 -14.5t60 -29t45 -14.5q25 0 36 13.5t12 40.5h134q-2 -180 -153 -180q-55 0 -109.5 27t-76.5 27q-52 0 -52 -49h-134q2 179 158 179zM219 322q45 0 80 -14.5t60 -29t45 -14.5q51 0 51 54h131q-2 -180 -153 -180q-55 0 -109.5 27t-76.5 27q-52 0 -52 -49
h-134q2 179 158 179z" />
    <glyph glyph-name="notequal" unicode="&#x2260;" 
d="M254 32h-152l55 120h-93v141h159l53 114h-212v141h277l56 121h151l-56 -121h94v-141h-159l-53 -114h212v-141h-277z" />
    <glyph glyph-name="lessequal" unicode="&#x2264;" 
d="M586 235l-522 146v170l522 145v-144l-348 -86l348 -85v-146zM586 50h-522v141h522v-141z" />
    <glyph glyph-name="greaterequal" unicode="&#x2265;" 
d="M64 696l522 -146v-170l-522 -145v144l347 85l-347 86v146zM586 50h-522v141h522v-141z" />
    <glyph glyph-name="Pcircle" unicode="&#x24c5;" horiz-adv-x="862" 
d="M612 397q0 129 -143 129h-166v-360h114v103h52q77 0 110 32t33 96zM500 409v-22q0 -32 -37 -32h-46v84h46q37 0 37 -30zM809 345q0 -169 -101.5 -263.5t-272.5 -94.5t-273 95t-102 263t102 263t273 95t272.5 -94.5t101.5 -263.5zM435 64q133 0 208.5 70.5t75.5 210.5
q0 139 -76 210t-208 71t-208 -71t-76 -210q0 -140 75.5 -210.5t208.5 -70.5z" />
    <glyph glyph-name="apple.icon" unicode="&#xf8ff;" horiz-adv-x="1011" 
d="M656 613q107 0 163 -81l-5 -4q-6 -4 -13.5 -10.5t-17 -16t-18.5 -22.5t-17 -28t-12.5 -35t-4.5 -42q0 -34 11 -63.5t26.5 -47.5t32.5 -31t27.5 -18t12.5 -5q-10 -49 -55 -118q-23 -33 -38 -50.5t-40 -34t-52 -16.5t-64 16t-71 16q-33 0 -72 -17t-64 -17q-24 0 -48.5 16.5
t-38.5 33.5t-41 54q-38 55 -62.5 128.5t-24.5 144.5q0 114 62.5 180.5t145.5 66.5q29 0 73.5 -18t59.5 -18q13 0 61.5 18.5t83.5 18.5zM628 681q-21 -25 -52.5 -41.5t-59.5 -16.5h-13q-1 2 -1 16q0 57 46 111q23 26 56.5 43.5t64.5 18.5q2 -4 2 -17q0 -59 -43 -114z" />
    <glyph glyph-name="zerowidthnobreak" unicode="&#xfeff;" horiz-adv-x="0" 
 />
    <glyph glyph-name="numbersign.icon" horiz-adv-x="824" 
d="M64 406l29 126h143l34 158h147l-34 -158h138l34 158h147l-34 -158h120l-29 -126h-118l-29 -139h149l-29 -126h-147l-30 -141h-147l30 141h-138l-30 -141h-147l30 141h-116l29 126h114l29 139h-145zM356 406l-29 -139h138l29 139h-138z" />
    <glyph glyph-name="dollar.tab" 
d="M399 -120h-151v113q-97 14 -148 67.5t-55 154.5h172q2 -56 30 -77t83 -21q56 0 84 18.5t28 62.5q0 27 -16.5 44.5t-43.5 24.5t-61.5 14t-71 11.5t-71 18.5t-61.5 34t-43.5 58t-16.5 91q0 176 191 204v112h151v-113q188 -27 194 -203h-172q-4 45 -29 62t-72 17
q-100 0 -100 -77q0 -29 21.5 -46t55.5 -25t75 -14t82 -17t75 -30.5t55.5 -59t21.5 -96.5q0 -192 -207 -217v-111z" />
    <glyph glyph-name="parenleft.uc" horiz-adv-x="459" 
d="M410 -134q-162 18 -246 130.5t-84 348.5t85 349t245 131v-130q-79 -17 -123 -88.5t-44 -184.5v-154q0 -113 44 -184t123 -88v-130z" />
    <glyph glyph-name="parenright.uc" horiz-adv-x="459" 
d="M49 825q162 -18 246 -130.5t84 -348.5t-85 -349t-245 -131v130q79 17 123 88.5t44 184.5v154q0 113 -44 184t-123 88v130z" />
    <glyph glyph-name="asterisk.icon" horiz-adv-x="754" 
d="M288 690h178l-16 -225l184 124l84 -143l-210 -100l210 -102l-83 -143l-185 126l16 -227h-178l18 228l-186 -127l-83 143l208 102l-208 100l83 143l185 -125z" />
    <glyph glyph-name="hyphen.uc" horiz-adv-x="420" 
d="M370 273h-320v156h320v-156z" />
    <glyph glyph-name="slash.uc" horiz-adv-x="486" 
d="M168 -60h-158l308 810h158z" />
    <glyph glyph-name="zero.den" horiz-adv-x="467" 
d="M438 212q0 -225 -205 -225t-205 225q0 226 205 226t205 -226zM307 184v59q0 95 -74 95q-73 0 -73 -95v-59q0 -50 16.5 -73.5t56.5 -23.5t57 23.5t17 73.5z" />
    <glyph glyph-name="zero.num" horiz-adv-x="467" 
d="M438 537q0 -225 -205 -225t-205 225q0 226 205 226t205 -226zM307 509v59q0 95 -74 95q-73 0 -73 -95v-59q0 -50 16.5 -73.5t56.5 -23.5t57 23.5t17 73.5z" />
    <glyph glyph-name="zero.sub" horiz-adv-x="467" 
d="M438 128q0 -225 -205 -225t-205 225q0 226 205 226t205 -226zM307 100v59q0 95 -74 95q-73 0 -73 -95v-59q0 -50 16.5 -73.5t56.5 -23.5t57 23.5t17 73.5z" />
    <glyph glyph-name="zero.sup" horiz-adv-x="467" 
d="M438 587q0 -225 -205 -225t-205 225q0 226 205 226t205 -226zM307 559v59q0 95 -74 95q-73 0 -73 -95v-59q0 -50 16.5 -73.5t56.5 -23.5t57 23.5t17 73.5z" />
    <glyph glyph-name="zero.tab" 
d="M614 345q0 -182 -71.5 -270t-217.5 -88t-217 88t-71 270q0 358 288 358q289 0 289 -358zM441 296v99q0 88 -25.5 131.5t-90.5 43.5t-90.5 -42.5t-25.5 -132.5v-99q0 -92 25 -133.5t91 -42.5q66 0 91 41.5t25 134.5z" />
    <glyph glyph-name="one.den" horiz-adv-x="331" 
d="M22 217v127l105 81h131v-425h-131v302z" />
    <glyph glyph-name="one.num" horiz-adv-x="331" 
d="M22 542v127l105 81h131v-425h-131v302z" />
    <glyph glyph-name="one.sub" horiz-adv-x="331" 
d="M22 133v127l105 81h131v-425h-131v302z" />
    <glyph glyph-name="one.sup" horiz-adv-x="331" 
d="M22 592v127l105 81h131v-425h-131v302z" />
    <glyph glyph-name="one.tab" 
d="M96 403v162l169 125h167v-549h162v-141h-504v141h175v393z" />
    <glyph glyph-name="two.den" horiz-adv-x="426" 
d="M214 342q-52 0 -55 -44h-132q7 140 185 140q187 0 187 -131q0 -42 -22 -71t-55 -44t-66.5 -26t-60.5 -26t-33 -36h237v-104h-370v61q0 52 24.5 88.5t59.5 54.5t70 30.5t59.5 26t24.5 31.5v12q0 38 -53 38z" />
    <glyph glyph-name="two.num" horiz-adv-x="426" 
d="M214 667q-52 0 -55 -44h-132q7 140 185 140q187 0 187 -131q0 -42 -22 -71t-55 -44t-66.5 -26t-60.5 -26t-33 -36h237v-104h-370v61q0 52 24.5 88.5t59.5 54.5t70 30.5t59.5 26t24.5 31.5v12q0 38 -53 38z" />
    <glyph glyph-name="two.sub" horiz-adv-x="426" 
d="M214 258q-52 0 -55 -44h-132q7 140 185 140q187 0 187 -131q0 -42 -22 -71t-55 -44t-66.5 -26t-60.5 -26t-33 -36h237v-104h-370v61q0 52 24.5 88.5t59.5 54.5t70 30.5t59.5 26t24.5 31.5v12q0 38 -53 38z" />
    <glyph glyph-name="two.sup" horiz-adv-x="426" 
d="M214 717q-52 0 -55 -44h-132q7 140 185 140q187 0 187 -131q0 -42 -22 -71t-55 -44t-66.5 -26t-60.5 -26t-33 -36h237v-104h-370v61q0 52 24.5 88.5t59.5 54.5t70 30.5t59.5 26t24.5 31.5v12q0 38 -53 38z" />
    <glyph glyph-name="two.tab" 
d="M326 570q-44 0 -63.5 -19t-23.5 -68h-173q5 118 71 169t189 51q128 0 192 -49t64 -160q0 -56 -23.5 -99t-58.5 -67.5t-77 -47t-78.5 -38.5t-63.5 -41.5t-31 -56.5h332v-144h-518v83q0 61 19 108t49.5 76t67.5 51t74 38t67.5 32t49.5 38t19 51v22q0 37 -20.5 54t-63.5 17z
" />
    <glyph glyph-name="three.alt" horiz-adv-x="630" 
d="M76 546v144h467v-128l-143 -144q94 -13 137 -61.5t43 -136.5q0 -117 -66 -175t-202 -58q-133 0 -202.5 52.5t-76.5 164.5h178q7 -84 101 -84q54 0 81 19.5t27 63.5v29q0 79 -114 79h-75v106l132 129h-287z" />
    <glyph glyph-name="three.den" horiz-adv-x="446" 
d="M225 82q60 0 60 41v12q0 35 -63 35h-42v96h41q48 0 48 29v12q0 36 -48 36q-25 0 -37 -8t-16 -29h-128q5 132 183 132q82 0 129.5 -29.5t47.5 -85.5q0 -78 -87 -101q103 -20 103 -100q0 -65 -48 -100t-142 -35t-143 33t-53 105h131q11 -43 64 -43z" />
    <glyph glyph-name="three.num" horiz-adv-x="446" 
d="M225 407q60 0 60 41v12q0 35 -63 35h-42v96h41q48 0 48 29v12q0 36 -48 36q-25 0 -37 -8t-16 -29h-128q5 132 183 132q82 0 129.5 -29.5t47.5 -85.5q0 -78 -87 -101q103 -20 103 -100q0 -65 -48 -100t-142 -35t-143 33t-53 105h131q11 -43 64 -43z" />
    <glyph glyph-name="three.sub" horiz-adv-x="446" 
d="M225 -2q60 0 60 41v12q0 35 -63 35h-42v96h41q48 0 48 29v12q0 36 -48 36q-25 0 -37 -8t-16 -29h-128q5 132 183 132q82 0 129.5 -29.5t47.5 -85.5q0 -78 -87 -101q103 -20 103 -100q0 -65 -48 -100t-142 -35t-143 33t-53 105h131q11 -43 64 -43z" />
    <glyph glyph-name="three.sup" horiz-adv-x="446" 
d="M225 457q60 0 60 41v12q0 35 -63 35h-42v96h41q48 0 48 29v12q0 36 -48 36q-25 0 -37 -8t-16 -29h-128q5 132 183 132q82 0 129.5 -29.5t47.5 -85.5q0 -78 -87 -101q103 -20 103 -100q0 -65 -48 -100t-142 -35t-143 33t-53 105h131q11 -43 64 -43z" />
    <glyph glyph-name="three.tab" 
d="M326 120q50 0 74 17t24 58v24q0 73 -96 73h-64v127h64q72 0 72 67v22q0 62 -74 62q-40 0 -60.5 -16t-23.5 -59h-176q4 208 258 208q116 0 181 -45.5t65 -135.5q0 -121 -119 -157q143 -32 143 -164q0 -104 -67 -159.5t-201 -55.5q-137 0 -207 51t-72 167h177q1 -44 26 -64
t76 -20z" />
    <glyph glyph-name="three.tab.alt" 
d="M85 546v144h467v-128l-142 -144q94 -13 137 -61.5t43 -136.5q0 -233 -269 -233q-133 0 -202.5 52.5t-75.5 164.5h177q5 -43 28.5 -63.5t72.5 -20.5q55 0 82 19.5t27 63.5v29q0 39 -26.5 59t-88.5 20h-75v106l132 129h-287z" />
    <glyph glyph-name="four.alt" horiz-adv-x="666" 
d="M536 0h-168v154h-335v119l259 417h165l-251 -403h162v174h168v-174h103v-133h-103v-154z" />
    <glyph glyph-name="four.den" horiz-adv-x="474" 
d="M199 425h182v-250h66v-100h-66v-75h-124v75h-227v91zM149 175h108v166z" />
    <glyph glyph-name="four.num" horiz-adv-x="474" 
d="M199 750h182v-250h66v-100h-66v-75h-124v75h-227v91zM149 500h108v166z" />
    <glyph glyph-name="four.sub" horiz-adv-x="474" 
d="M199 341h182v-250h66v-100h-66v-75h-124v75h-227v91zM149 91h108v166z" />
    <glyph glyph-name="four.sup" horiz-adv-x="474" 
d="M199 800h182v-250h66v-100h-66v-75h-124v75h-227v91zM149 550h108v166z" />
    <glyph glyph-name="four.tab" 
d="M264 690h263v-404h92v-132h-92v-154h-167v154h-325v119zM193 286h167v302z" />
    <glyph glyph-name="four.tab.alt" 
d="M522 0h-164v154h-318v119l227 417h166l-220 -403h145v153h164v-153h93v-133h-93v-154z" />
    <glyph glyph-name="five.den" horiz-adv-x="443" 
d="M225 87q55 0 55 41v15q0 46 -56 46q-45 0 -67 -23l-113 21l21 238h318v-104h-221l-8 -75q35 30 98 30q79 0 120 -35.5t41 -102.5q0 -151 -186 -151t-197 131h133q8 -31 62 -31z" />
    <glyph glyph-name="five.num" horiz-adv-x="443" 
d="M225 412q55 0 55 41v15q0 46 -56 46q-45 0 -67 -23l-113 21l21 238h318v-104h-221l-8 -75q35 30 98 30q79 0 120 -35.5t41 -102.5q0 -151 -186 -151t-197 131h133q8 -31 62 -31z" />
    <glyph glyph-name="five.sub" horiz-adv-x="443" 
d="M225 3q55 0 55 41v15q0 46 -56 46q-45 0 -67 -23l-113 21l21 238h318v-104h-221l-8 -75q35 30 98 30q79 0 120 -35.5t41 -102.5q0 -151 -186 -151t-197 131h133q8 -31 62 -31z" />
    <glyph glyph-name="five.sup" horiz-adv-x="443" 
d="M225 462q55 0 55 41v15q0 46 -56 46q-45 0 -67 -23l-113 21l21 238h318v-104h-221l-8 -75q35 30 98 30q79 0 120 -35.5t41 -102.5q0 -151 -186 -151t-197 131h133q8 -31 62 -31z" />
    <glyph glyph-name="five.tab" 
d="M332 120q93 0 93 95v31q0 96 -95 96q-66 0 -101 -43l-147 32l32 359h434v-144h-305l-12 -139q48 46 140 46q109 0 167 -57.5t58 -165.5q0 -121 -68.5 -182t-195.5 -61q-266 0 -278 218h176q5 -44 29 -64.5t73 -20.5z" />
    <glyph glyph-name="six.den" horiz-adv-x="460" 
d="M236 338q-39 0 -56 -19.5t-17 -72.5v-9q35 38 111 38q69 0 111 -33t42 -106q0 -149 -191 -149q-105 0 -153 47t-48 167q0 71 16 120t46 73.5t63.5 34t77.5 9.5q162 0 179 -125h-128q-12 25 -53 25zM232 81q62 0 62 45v15q0 47 -62 47q-64 0 -64 -53q0 -54 64 -54z" />
    <glyph glyph-name="six.num" horiz-adv-x="460" 
d="M236 664q-39 0 -56 -19.5t-17 -72.5v-9q35 38 111 38q69 0 111 -33t42 -106q0 -149 -191 -149q-105 0 -153 47t-48 167q0 71 16 120t46 73.5t63.5 34t77.5 9.5q162 0 179 -125h-128q-12 25 -53 25zM232 407q62 0 62 45v15q0 47 -62 47q-64 0 -64 -53q0 -54 64 -54z" />
    <glyph glyph-name="six.sub" horiz-adv-x="460" 
d="M236 254q-39 0 -56 -19.5t-17 -72.5v-9q35 38 111 38q69 0 111 -33t42 -106q0 -149 -191 -149q-105 0 -153 47t-48 167q0 71 16 120t46 73.5t63.5 34t77.5 9.5q162 0 179 -125h-128q-12 25 -53 25zM232 -3q62 0 62 45v15q0 47 -62 47q-64 0 -64 -53q0 -54 64 -54z" />
    <glyph glyph-name="six.sup" horiz-adv-x="460" 
d="M236 714q-39 0 -56 -19.5t-17 -72.5v-9q35 38 111 38q69 0 111 -33t42 -106q0 -149 -191 -149q-105 0 -153 47t-48 167q0 71 16 120t46 73.5t63.5 34t77.5 9.5q162 0 179 -125h-128q-12 25 -53 25zM232 457q62 0 62 45v15q0 47 -62 47q-64 0 -64 -53q0 -54 64 -54z" />
    <glyph glyph-name="six.tab" 
d="M338 569q-58 0 -86.5 -39t-28.5 -144v-12q56 68 163 68q101 0 158.5 -53.5t57.5 -164.5q0 -114 -68 -175.5t-200 -61.5q-147 0 -214.5 82.5t-67.5 273.5q0 103 20.5 175t61 111.5t91 56.5t118.5 17q116 0 178 -51.5t68 -135.5h-168q-14 53 -83 53zM334 116q97 0 97 94v30
q0 90 -97 90q-102 0 -102 -107q0 -58 25.5 -82.5t76.5 -24.5z" />
    <glyph glyph-name="seven.den" horiz-adv-x="382" 
d="M20 321v104h343v-83l-175 -342h-129l164 321h-203z" />
    <glyph glyph-name="seven.num" horiz-adv-x="382" 
d="M20 646v104h343v-83l-175 -342h-129l164 321h-203z" />
    <glyph glyph-name="seven.sub" horiz-adv-x="382" 
d="M20 237v104h343v-83l-175 -342h-129l164 321h-203z" />
    <glyph glyph-name="seven.sup" horiz-adv-x="382" 
d="M20 696v104h343v-83l-175 -342h-129l164 321h-203z" />
    <glyph glyph-name="seven.tab" 
d="M76 546v144h499v-121l-264 -569h-163l253 546h-325z" />
    <glyph glyph-name="eight.den" horiz-adv-x="463" 
d="M231 -13q-201 0 -201 133q0 78 89 103q-72 25 -72 93q0 61 49.5 91.5t134.5 30.5q86 0 135.5 -30t49.5 -92q0 -67 -72 -93q89 -26 89 -103q0 -133 -202 -133zM231 170q-69 0 -69 -42v-11q0 -40 69 -40q70 0 70 40v11q0 42 -70 42zM231 264q61 0 61 38v7q0 39 -61 39
q-58 0 -58 -39v-7q0 -38 58 -38z" />
    <glyph glyph-name="eight.num" horiz-adv-x="463" 
d="M231 312q-201 0 -201 133q0 78 89 103q-72 25 -72 93q0 61 49.5 91.5t134.5 30.5q86 0 135.5 -30t49.5 -92q0 -67 -72 -93q89 -26 89 -103q0 -133 -202 -133zM231 495q-69 0 -69 -42v-11q0 -40 69 -40q70 0 70 40v11q0 42 -70 42zM231 589q61 0 61 38v7q0 39 -61 39
q-58 0 -58 -39v-7q0 -38 58 -38z" />
    <glyph glyph-name="eight.sub" horiz-adv-x="463" 
d="M231 -97q-201 0 -201 133q0 78 89 103q-72 25 -72 93q0 61 49.5 91.5t134.5 30.5q86 0 135.5 -30t49.5 -92q0 -68 -72 -93q89 -26 89 -103q0 -133 -202 -133zM231 86q-69 0 -69 -42v-11q0 -40 69 -40q70 0 70 40v11q0 42 -70 42zM231 180q61 0 61 38v7q0 39 -61 39
q-58 0 -58 -39v-7q0 -38 58 -38z" />
    <glyph glyph-name="eight.sup" horiz-adv-x="463" 
d="M231 362q-201 0 -201 133q0 78 89 103q-72 25 -72 93q0 61 49.5 91.5t134.5 30.5q86 0 135.5 -30t49.5 -92q0 -67 -72 -93q89 -26 89 -103q0 -133 -202 -133zM231 545q-69 0 -69 -42v-11q0 -40 69 -40q70 0 70 40v11q0 42 -70 42zM231 639q61 0 61 38v7q0 39 -61 39
q-58 0 -58 -39v-7q0 -38 58 -38z" />
    <glyph glyph-name="eight.tab" 
d="M325 -13q-285 0 -285 204q0 70 36.5 115.5t106.5 61.5q-120 31 -120 152q0 92 70 137.5t192 45.5t192 -45.5t70 -137.5q0 -121 -121 -152q144 -34 144 -177q0 -204 -285 -204zM325 299q-116 0 -116 -83v-21q0 -81 116 -81q53 0 84.5 20t31.5 61v21q0 83 -116 83zM325 415
q93 0 93 73v16q0 72 -93 72t-93 -72v-16q0 -73 93 -73z" />
    <glyph glyph-name="nine.den" horiz-adv-x="460" 
d="M224 87q39 0 56 19.5t17 72.5v9q-35 -38 -111 -38q-69 0 -111 33t-42 106q0 149 191 149q105 0 153 -47t48 -167q0 -71 -16 -120t-46 -73.5t-63.5 -34t-77.5 -9.5q-162 0 -179 125h128q12 -25 53 -25zM228 344q-62 0 -62 -45v-15q0 -47 62 -47q64 0 64 53q0 54 -64 54z
" />
    <glyph glyph-name="nine.num" horiz-adv-x="460" 
d="M224 412q39 0 56 19.5t17 72.5v9q-35 -38 -111 -38q-69 0 -111 33t-42 106q0 149 191 149q105 0 153 -47t48 -167q0 -71 -16 -120t-46 -73.5t-63.5 -34t-77.5 -9.5q-162 0 -179 125h128q12 -25 53 -25zM228 669q-62 0 -62 -45v-15q0 -47 62 -47q64 0 64 53q0 54 -64 54z
" />
    <glyph glyph-name="nine.sub" horiz-adv-x="460" 
d="M224 3q39 0 56 19.5t17 72.5v9q-35 -38 -111 -38q-69 0 -111 33t-42 106q0 149 191 149q105 0 153 -47t48 -167q0 -71 -16 -120t-46 -73.5t-63.5 -34t-77.5 -9.5q-162 0 -179 125h128q12 -25 53 -25zM228 260q-62 0 -62 -45v-15q0 -47 62 -47q64 0 64 53q0 54 -64 54z
" />
    <glyph glyph-name="nine.sup" horiz-adv-x="460" 
d="M224 462q39 0 56 19.5t17 72.5v9q-35 -38 -111 -38q-69 0 -111 33t-42 106q0 149 191 149q105 0 153 -47t48 -167q0 -71 -16 -120t-46 -73.5t-63.5 -34t-77.5 -9.5q-162 0 -179 125h128q12 -25 53 -25zM228 719q-62 0 -62 -45v-15q0 -47 62 -47q64 0 64 53q0 54 -64 54z
" />
    <glyph glyph-name="nine.tab" 
d="M312 132q58 0 86.5 39t28.5 144v12q-56 -68 -163 -68q-101 0 -158.5 53.5t-57.5 164.5q0 114 68 175.5t200 61.5q147 0 214.5 -82.5t67.5 -273.5q0 -103 -20.5 -175t-61 -111.5t-91 -56.5t-118.5 -17q-116 0 -178 51.5t-68 135.5h168q14 -53 83 -53zM316 585
q-97 0 -97 -94v-30q0 -90 97 -90q102 0 102 107q0 58 -25.5 82.5t-76.5 24.5z" />
    <glyph glyph-name="at.uc" horiz-adv-x="1089" 
d="M495 108q-199 0 -199 242q0 120 51 180t148 60q92 0 140 -68v51h137v-260q0 -51 13.5 -68t43.5 -17q67 0 67 118v60q0 79 -27.5 136.5t-77.5 89t-110 45.5t-135 14q-352 0 -352 -306v-65q0 -74 21 -130.5t54.5 -89.5t81 -54t94 -28.5t100.5 -7.5q55 0 119 10.5t97 31.5
v-109q-73 -43 -216 -43q-78 0 -145 12t-133 43t-112 80.5t-74 130t-28 185.5q0 227 130.5 338t362.5 111q230 0 359.5 -105.5t129.5 -309.5q0 -135 -58 -206t-162 -71q-135 0 -162 97q-41 -97 -158 -97zM539 224q89 0 89 100v49q0 52 -21.5 76.5t-68.5 24.5q-46 0 -67 -24.5
t-21 -76.5v-49q0 -51 21.5 -75.5t67.5 -24.5z" />
    <glyph glyph-name="bracketleft.uc" horiz-adv-x="426" 
d="M377 -128h-292v950h292v-127h-141v-696h141v-127z" />
    <glyph glyph-name="backslash.uc" horiz-adv-x="486" 
d="M318 -60l-308 810h158l308 -810h-158z" />
    <glyph glyph-name="bracketright.uc" horiz-adv-x="426" 
d="M49 822h292v-950h-292v127h141v696h-141v127z" />
    <glyph glyph-name="a.alt" horiz-adv-x="628" 
d="M411 0v57q-47 -70 -152 -70q-108 0 -165 66.5t-57 199.5q0 135 56.5 202.5t164.5 67.5q106 0 153 -72v59h157v-510h-157zM305 102q96 0 101 95v111q0 52 -24 76t-78 24q-52 0 -76 -24.5t-24 -75.5v-101q0 -105 101 -105z" />
    <glyph glyph-name="braceleft.uc" horiz-adv-x="440" 
d="M268 629v-136q0 -31 -3 -51.5t-12 -41.5t-29 -34t-51 -20q60 -10 77.5 -44t17.5 -102v-132q0 -37 11 -53t42 -16h71v-127h-117q-86 0 -120.5 35.5t-34.5 119.5v141q0 58 -16 84t-69 27v135q52 1 68.5 29t16.5 83v141q0 84 34.5 119.5t120.5 35.5h117v-127h-71
q-31 0 -42 -15.5t-11 -50.5z" />
    <glyph glyph-name="bar.uc" horiz-adv-x="287" 
d="M219 -100h-151v890h151v-890z" />
    <glyph glyph-name="braceright.uc" horiz-adv-x="440" 
d="M172 65v136q0 31 3 51.5t12 41.5t29 34t51 20q-60 10 -77.5 44t-17.5 102v132q0 37 -11 53t-42 16h-71v127h117q86 0 120.5 -35.5t34.5 -119.5v-141q0 -58 16 -84t69 -27v-135q-52 -1 -68.5 -29t-16.5 -83v-141q0 -84 -34.5 -119.5t-120.5 -35.5h-117v127h71
q31 0 42 15.5t11 50.5z" />
    <glyph glyph-name="cent.tab" 
d="M400 -120h-144v113q-90 16 -132 78.5t-42 183.5q0 119 42 182t132 80v113h144v-112q78 -12 120.5 -53t48.5 -121h-165q-6 64 -75 64q-41 0 -60.5 -23t-19.5 -74v-106q0 -103 80 -103q71 0 78 64h165q-19 -149 -172 -173v-113z" />
    <glyph glyph-name="sterling.tab" 
d="M82 258v113h58q-55 73 -55 141q0 94 66.5 142.5t186.5 48.5q235 0 248 -196h-173q-7 65 -75 65q-40 0 -60 -18t-20 -60v-7q0 -18 6.5 -34.5t13.5 -26.5t22.5 -28t21.5 -27h182v-113h-141v-5q0 -69 -59 -112h289v-141h-538v134q62 0 105 25.5t43 73.5v15q0 6 -1 10h-120z
" />
    <glyph glyph-name="yen.tab" 
d="M205 690l129 -222l123 222h169l-166 -286h114v-114h-165v-62h165v-113h-165v-115h-167v115h-165v113h165v62h-165v114h114l-166 286h180z" />
    <glyph glyph-name="dieresis.uc" horiz-adv-x="516" 
d="M461 838q0 -83 -84 -83q-85 0 -85 83q0 39 22 60t63 21q40 0 62 -21t22 -60zM224 838q0 -83 -85 -83q-84 0 -84 83q0 81 84 81q41 0 63 -21t22 -60z" />
    <glyph glyph-name="guillemotleft.uc" horiz-adv-x="560" 
d="M261 437l-113 -85l113 -86v-155l-223 180v117l223 180v-151zM508 437l-113 -85l113 -86v-155l-223 180v117l223 180v-151z" />
    <glyph glyph-name="guillemotright.uc" horiz-adv-x="560" 
d="M299 262l113 85l-113 86v155l223 -180v-117l-223 -180v151zM52 262l113 85l-113 86v155l223 -180v-117l-223 -180v151z" />
    <glyph glyph-name="endash.uc" horiz-adv-x="653" 
d="M603 288h-553v126h553v-126z" />
    <glyph glyph-name="emdash.uc" horiz-adv-x="893" 
d="M823 288h-753v126h753v-126z" />
    <glyph glyph-name="guilsinglleft.uc" horiz-adv-x="300" 
d="M261 437l-113 -85l113 -86v-155l-223 180v117l223 180v-151z" />
    <glyph glyph-name="guilsinglright.uc" horiz-adv-x="300" 
d="M52 262l113 85l-113 86v155l223 -180v-117l-223 -180v151z" />
    <glyph glyph-name="Euro.tab" 
d="M36 370v100h66q21 122 86 177.5t175 55.5q117 0 180.5 -51.5t77.5 -168.5h-159q-6 52 -30.5 72.5t-68.5 20.5t-70.5 -24t-35.5 -82h162v-100h-167v-49h167v-100h-163q9 -58 35.5 -82.5t71.5 -24.5q43 0 67 20.5t33 72.5h159q-15 -116 -79 -168t-180 -52q-111 0 -176 55
t-85 179h-66v100h57v26v23h-57z" />
    <glyph glyph-name="uni20B4.tab" 
d="M324 108q71 0 86 50h172q-15 -171 -260 -171q-132 0 -194 40.5t-62 111.5q0 49 34 83h-52v100h554v-100h-325q-34 -15 -34 -48v-14q0 -52 81 -52zM326 582q-64 0 -77 -50h-172q6 83 70.5 127t180.5 44q124 0 183.5 -42t59.5 -117q0 -42 -27 -76h58v-93h-554v93h316
q30 15 30 45v14q0 55 -68 55z" />
    <glyph glyph-name="uni20B8.tab" 
d="M601 401h-192v-401h-168v401h-191v114h551v-114zM601 576h-551v114h551v-114z" />
    <glyph glyph-name="uni20BD.tab" 
d="M624 476q0 -198 -231 -198h-127v-62h226v-112h-226v-104h-167v104h-68v112h68v62h-68v125h68v287h294q116 0 173.5 -56t57.5 -158zM451 465v21q0 65 -78 65h-107v-148h107q78 0 78 62z" />
    <glyph glyph-name="cyrbreve" horiz-adv-x="516" 
d="M315 749h130q0 -168 -187 -168t-187 168h130q0 -45 13.5 -62t43.5 -17q31 0 44 16.5t13 62.5z" />
    <glyph glyph-name="cyrbreve.uc" horiz-adv-x="510" 
d="M314 908h142q0 -170 -204 -170q-105 0 -155 42t-50 128h142q0 -40 15 -57t48 -17t47.5 17t14.5 57z" />
    <glyph glyph-name="egg.icon" horiz-adv-x="1007" 
d="M836 292q0 -71 -20.5 -135t-60 -116.5t-105 -84t-147.5 -31.5q-109 0 -186.5 54.5t-112 135t-34.5 174.5q0 129 47.5 257.5t126 211.5t159.5 83t159.5 -83t126 -211t47.5 -255z" />
    <glyph glyph-name="phone1.icon" horiz-adv-x="586" 
d="M170 -13q-52 0 -106 34q-39 26 -39 47q0 15 32 55l79 97q19 24 38 24q14 0 37 -15q31 -19 48 -19t36.5 18.5t52.5 77.5q44 79 44 130q0 12 -8 20t-29 20q-26 14 -34 21t-8 17q0 11 9 33l53 124q13 32 33 32q32 0 84 -32q36 -21 52.5 -45t16.5 -59q0 -78 -113 -300
q-61 -120 -118 -183.5t-95 -81.5q-31 -15 -65 -15z" />
    </font>
</defs>
</svg>
