<?xml version="1.0" standalone="no"?>
<!DOCTYPE svg PUBLIC "-//W3C//DTD SVG 1.1//EN" "http://www.w3.org/Graphics/SVG/1.1/DTD/svg11.dtd" >
<svg xmlns="http://www.w3.org/2000/svg" xmlns:xlink="http://www.w3.org/1999/xlink" version="1.1">
<metadata>
Created by FontForge 20170731 at Fri May 24 18:31:20 2019
 By Aleksey,,,
(c) Ilya Ruderman and Yury Ostromentsky, CSTM Fonts, 2019
</metadata>
<defs>
<font id="MTSSans-Regular" horiz-adv-x="626" >
  <font-face 
    font-family="MTS Sans"
    font-weight="400"
    font-stretch="normal"
    units-per-em="1000"
    panose-1="2 0 0 0 0 0 0 0 0 0"
    ascent="800"
    descent="-200"
    x-height="498"
    cap-height="690"
    bbox="-166 -214 1227 903"
    underline-thickness="50"
    underline-position="-200"
    unicode-range="U+0020-FEFF"
  />
<missing-glyph horiz-adv-x="500" 
 />
    <glyph glyph-name="fi" unicode="fi" horiz-adv-x="528" 
d="M451 0h-85v431h-194v-431h-85v431h-65v67h65v121q0 60 26 85.5t90 25.5h248v-67h-228q-28 0 -39.5 -12t-11.5 -41v-112h279v-498z" />
    <glyph glyph-name="fl" unicode="fl" horiz-adv-x="528" 
d="M451 0h-85v431h-194v-431h-85v431h-65v67h65v121q0 60 26 85.5t90 25.5h248v-730zM172 610v-112h194v165h-143q-28 0 -39.5 -12t-11.5 -41z" />
    <glyph glyph-name=".notdef" horiz-adv-x="500" 
 />
    <glyph glyph-name=".null" horiz-adv-x="0" 
 />
    <glyph glyph-name="nonmarkingreturn" horiz-adv-x="333" 
 />
    <glyph glyph-name="space" unicode=" " horiz-adv-x="250" 
 />
    <glyph glyph-name="exclam" unicode="!" horiz-adv-x="268" 
d="M170 197h-73l-13 493h99zM193 50q0 -60 -61 -60q-58 0 -58 60q0 59 58 59q61 0 61 -59z" />
    <glyph glyph-name="quotedbl" unicode="&#x22;" horiz-adv-x="347" 
d="M127 424h-77v266h77v-266zM296 424h-77v266h77v-266z" />
    <glyph glyph-name="numbersign" unicode="#" horiz-adv-x="720" 
d="M59 436l16 73h149l39 181h81l-39 -181h180l39 181h82l-39 -181h121l-16 -73h-121l-41 -193h151l-16 -73h-150l-36 -170h-82l36 170h-180l-36 -170h-81l36 170h-120l16 73h119l41 193h-149zM289 436l-41 -193h180l41 193h-180z" />
    <glyph glyph-name="dollar" unicode="$" horiz-adv-x="612" 
d="M348 -120h-81v112q-106 7 -158.5 54.5t-58.5 143.5h94q4 -70 44 -99t125 -29q156 0 156 115q0 45 -22.5 73.5t-58 41t-79 20.5t-86.5 18.5t-79 29t-58.5 58t-22.5 98.5q0 79 53 127.5t151 55.5v111h81v-112q189 -17 200 -179h-94q-6 60 -44.5 84.5t-110.5 24.5
q-142 0 -142 -112q0 -42 22.5 -68t58 -38t79 -19.5t86.5 -19t78.5 -30.5t58 -60t22.5 -102q0 -86 -55 -133.5t-159 -54.5v-111z" />
    <glyph glyph-name="percent" unicode="%" horiz-adv-x="862" 
d="M735 690l-516 -690h-91l515 690h92zM206 334q-89 0 -132.5 48t-43.5 135t43.5 135t132.5 48q88 0 131.5 -48t43.5 -135t-43.5 -135t-131.5 -48zM206 398q43 0 64.5 23.5t21.5 77.5v36q0 101 -86 101q-87 0 -87 -101v-36q0 -54 21.5 -77.5t65.5 -23.5zM656 -11
q-175 0 -175 183t175 183q89 0 132.5 -48t43.5 -135t-43.5 -135t-132.5 -48zM656 54q44 0 65 23.5t21 76.5v36q0 101 -86 101t-86 -101v-36q0 -53 21.5 -76.5t64.5 -23.5z" />
    <glyph glyph-name="ampersand" unicode="&#x26;" horiz-adv-x="684" 
d="M543 111q21 -22 41.5 -30.5t56.5 -8.5h12v-72h-46q-80 0 -125 51l-7 7q-76 -68 -201 -68q-121 0 -177 53t-57 137q-1 124 150 198q-73 90 -73 166q0 71 45.5 113.5t136.5 42.5q182 0 182 -154q0 -112 -161 -186l149 -167q20 62 20 152h88q0 -134 -48 -219zM274 62
q100 0 150 53l-186 208q-52 -25 -78 -56t-26 -75v-20q0 -53 39 -81.5t101 -28.5zM211 538q0 -56 61 -125q115 52 115 125v16q0 74 -88 74q-41 0 -64.5 -18.5t-23.5 -54.5v-17z" />
    <glyph glyph-name="quotesingle" unicode="'" horiz-adv-x="177" 
d="M127 424h-77v266h77v-266z" />
    <glyph glyph-name="parenleft" unicode="(" horiz-adv-x="377" 
d="M333 -214q-125 22 -189 133t-64 346t65 346.5t188 133.5v-73q-78 -21 -122 -104.5t-44 -216.5v-171q0 -134 44 -217t122 -104v-73z" />
    <glyph glyph-name="parenright" unicode=")" horiz-adv-x="377" 
d="M44 745q125 -22 189 -133t64 -346t-65 -346.5t-188 -133.5v73q78 21 122 104.5t44 216.5v171q0 134 -44 217t-122 104v73z" />
    <glyph glyph-name="asterisk" unicode="*" horiz-adv-x="450" 
d="M383 471l-32 -55l-98 63l8 -117h-72l8 117l-98 -63l-32 55l107 54l-107 56l32 54l98 -64l-8 119h72l-8 -119l98 64l32 -54l-107 -56z" />
    <glyph glyph-name="plus" unicode="+" 
d="M275 104v210h-210v72h210v211h76v-211h210v-72h-210v-210h-76z" />
    <glyph glyph-name="comma" unicode="," horiz-adv-x="235" 
d="M116 109q61 0 61 -65v-50q0 -73 -25 -102.5t-83 -29.5v57q25 0 34 14.5t9 44.5v12q-54 3 -54 64q0 55 58 55z" />
    <glyph glyph-name="hyphen" unicode="-" horiz-adv-x="417" 
d="M367 216h-317v80h317v-80z" />
    <glyph glyph-name="period" unicode="." horiz-adv-x="235" 
d="M177 50q0 -60 -61 -60q-58 0 -58 60q0 59 58 59q61 0 61 -59z" />
    <glyph glyph-name="slash" unicode="/" horiz-adv-x="479" 
d="M144 -95h-82l317 835h82z" />
    <glyph glyph-name="zero" unicode="0" horiz-adv-x="642" 
d="M589 345q0 -168 -65.5 -261.5t-202.5 -93.5t-202 93.5t-65 261.5q0 169 65 262t202 93q138 0 203 -93t65 -262zM495 314v64q0 250 -174 250q-173 0 -173 -250v-64q0 -252 173 -252q174 0 174 252z" />
    <glyph glyph-name="one" unicode="1" horiz-adv-x="347" 
d="M34 497v88l135 105h90v-690h-90v604z" />
    <glyph glyph-name="two" unicode="2" horiz-adv-x="541" 
d="M279 628q-65 0 -98 -28.5t-38 -102.5h-94q6 108 65 155.5t165 47.5q220 0 220 -194q0 -55 -19.5 -96t-51 -65.5t-70 -44t-77.5 -38t-72 -40t-55.5 -58t-25.5 -84.5h373v-80h-461v42q0 67 20 118t52.5 81.5t71 53.5t77.5 40.5t71.5 36.5t52.5 47.5t20 66.5v32
q0 59 -32 84.5t-94 25.5z" />
    <glyph glyph-name="three" unicode="3" horiz-adv-x="584" 
d="M298 62q143 0 143 116v34q0 113 -140 113h-58v73h58q57 0 87.5 27t30.5 78v27q0 98 -121 98q-65 0 -97 -27t-37 -92h-94q13 191 228 191q100 0 157.5 -43.5t57.5 -136.5q0 -56 -31 -98.5t-81 -55.5q61 -12 97.5 -56.5t36.5 -112.5q0 -101 -60.5 -154t-176.5 -53
q-120 0 -180.5 50t-68.5 162h94q5 -73 41 -106.5t114 -33.5z" />
    <glyph glyph-name="four" unicode="4" horiz-adv-x="598" 
d="M322 690h146v-443h109v-73h-109v-174h-90v174h-350v57zM127 247h251v391z" />
    <glyph glyph-name="five" unicode="5" horiz-adv-x="575" 
d="M295 62q144 0 144 146v39q0 137 -142 137q-93 0 -136 -67l-94 16l39 357h383v-80h-307l-24 -213q56 60 152 60q106 0 164.5 -56t58.5 -172q0 -117 -62 -178t-176 -61q-233 0 -253 199h94q9 -69 48.5 -98t110.5 -29z" />
    <glyph glyph-name="six" unicode="6" horiz-adv-x="600" 
d="M312 628q-80 0 -121.5 -56t-41.5 -192v-20q24 37 70 59.5t110 22.5q104 0 163.5 -57t59.5 -165q0 -111 -64 -170.5t-181 -59.5q-132 0 -192.5 76t-60.5 269q0 106 19 179.5t56 113t81.5 56t104.5 16.5q204 0 222 -165h-94q-14 93 -131 93zM307 62q73 0 112 35.5t39 104.5
v37q0 129 -150 129q-156 0 -156 -145q0 -83 37 -122t118 -39z" />
    <glyph glyph-name="seven" unicode="7" horiz-adv-x="496" 
d="M22 610v80h456v-55l-297 -635h-90l285 610h-354z" />
    <glyph glyph-name="eight" unicode="8" 
d="M313 -10q-260 0 -260 205q0 66 36 110t98 61q-107 34 -107 148q0 186 233 186t233 -186q0 -113 -104 -148q61 -17 96 -61t35 -110q0 -205 -260 -205zM313 326q-166 0 -166 -119v-27q0 -118 166 -118t166 118v27q0 119 -166 119zM313 398q139 1 139 106v19q0 105 -139 105
t-139 -105v-19q0 -106 139 -106z" />
    <glyph glyph-name="nine" unicode="9" horiz-adv-x="600" 
d="M288 54q80 0 121.5 56t41.5 192v20q-24 -37 -70 -59.5t-110 -22.5q-104 0 -163.5 57t-59.5 165q0 111 64 170.5t181 59.5q132 0 192.5 -76t60.5 -269q0 -106 -19 -179.5t-56 -113t-81.5 -56t-104.5 -16.5q-204 0 -222 165h94q14 -93 131 -93zM293 620q-73 0 -112 -35.5
t-39 -104.5v-37q0 -129 150 -129q156 0 156 145q0 83 -37 122t-118 39z" />
    <glyph glyph-name="colon" unicode=":" horiz-adv-x="235" 
d="M177 50q0 -60 -61 -60q-58 0 -58 60q0 59 58 59q61 0 61 -59zM177 399q0 -60 -61 -60q-58 0 -58 60q0 59 58 59q61 0 61 -59z" />
    <glyph glyph-name="semicolon" unicode=";" horiz-adv-x="235" 
d="M177 399q0 -60 -61 -60q-58 0 -58 60q0 59 58 59q61 0 61 -59zM116 109q61 0 61 -65v-50q0 -73 -25 -102.5t-83 -29.5v57q25 0 34 14.5t9 44.5v12q-54 3 -54 64q0 55 58 55z" />
    <glyph glyph-name="less" unicode="&#x3c;" 
d="M561 528l-417 -177l417 -176v-82l-496 217v80l496 218v-80z" />
    <glyph glyph-name="equal" unicode="=" 
d="M561 412h-496v72h496v-72zM561 217h-496v72h496v-72z" />
    <glyph glyph-name="greater" unicode="&#x3e;" 
d="M65 172l417 177l-417 176v82l496 -217v-80l-496 -218v80z" />
    <glyph glyph-name="question" unicode="?" horiz-adv-x="522" 
d="M271 628q-70 0 -105.5 -27.5t-39.5 -90.5h-94q12 190 239 190q105 0 162 -43.5t57 -130.5q0 -44 -14.5 -76.5t-36.5 -49t-47.5 -34t-47.5 -32t-36.5 -42.5t-14.5 -66v-29h-88v29q0 55 19.5 93.5t48 58.5t56.5 37t47.5 40.5t19.5 56.5v26q0 45 -33.5 67.5t-91.5 22.5z
M309 50q0 -60 -61 -60q-58 0 -58 60q0 59 58 59q61 0 61 -59z" />
    <glyph glyph-name="at" unicode="@" horiz-adv-x="1009" 
d="M482 8q-101 0 -153.5 62.5t-52.5 176.5q0 116 52 179.5t154 63.5q96 0 144 -70v60h84v-286q0 -70 17 -94.5t52 -24.5q47 0 65.5 38.5t18.5 115.5v59q0 80 -21 141.5t-54.5 98.5t-81.5 60.5t-95.5 32t-101.5 8.5q-53 0 -101 -9.5t-96.5 -33.5t-83.5 -61.5t-57 -98.5
t-22 -138v-69q0 -83 24.5 -147.5t61.5 -101.5t87 -61t95 -32t92 -8q54 0 116 10.5t95 31.5v-74q-66 -39 -211 -39q-53 0 -102 8t-102 26.5t-95.5 52.5t-77 82.5t-53.5 121t-19 162.5q0 120 35 209t98 140t141.5 75.5t174.5 24.5q95 0 173 -24t139 -73.5t94.5 -133
t33.5 -196.5q0 -265 -176 -265q-60 0 -91 28.5t-38 69.5q-44 -98 -162 -98zM496 75q62 0 96 40.5t34 111.5v44q0 74 -33.5 113t-96.5 39t-97 -39t-34 -114v-44q0 -72 34 -111.5t97 -39.5z" />
    <glyph glyph-name="A" unicode="A" horiz-adv-x="637" 
d="M243 690h136l244 -690h-90l-70 197h-299l-65 -197h-85zM309 633l-121 -363h249z" />
    <glyph glyph-name="B" unicode="B" horiz-adv-x="624" 
d="M575 192q0 -192 -213 -192h-274v690h258q204 0 204 -172q0 -123 -104 -158q129 -30 129 -168zM482 218q0 100 -128 100h-176v-246h176q128 0 128 103v43zM456 526q0 92 -109 92h-169v-232h169q109 0 109 102v38z" />
    <glyph glyph-name="C" unicode="C" horiz-adv-x="658" 
d="M342 -10q-144 0 -216 91t-72 264t72 264t216 91q124 0 186.5 -50.5t79.5 -160.5h-94q-11 72 -52.5 105.5t-119.5 33.5q-194 0 -194 -250v-64q0 -252 194 -252q76 0 118 30.5t55 103.5h94q-17 -107 -83 -156.5t-184 -49.5z" />
    <glyph glyph-name="D" unicode="D" horiz-adv-x="668" 
d="M304 72q217 0 217 242v64q0 240 -217 240h-126v-546h126zM304 0h-216v690h216q165 0 237.5 -86.5t72.5 -258.5q0 -166 -73 -255.5t-237 -89.5z" />
    <glyph glyph-name="E" unicode="E" horiz-adv-x="569" 
d="M519 0h-431v690h423v-72h-333v-232h266v-72h-266v-242h341v-72z" />
    <glyph glyph-name="F" unicode="F" horiz-adv-x="545" 
d="M178 0h-90v690h413v-72h-323v-240h263v-73h-263v-305z" />
    <glyph glyph-name="G" unicode="G" horiz-adv-x="681" 
d="M627 281q0 -291 -280 -291q-293 0 -293 355q0 173 73 264t220 91q127 0 191.5 -52.5t79.5 -158.5h-94q-24 139 -177 139q-199 0 -199 -251v-63q0 -252 199 -252q98 0 142 49.5t47 151.5h-146v72h237v-54z" />
    <glyph glyph-name="H" unicode="H" horiz-adv-x="679" 
d="M591 0h-90v314h-323v-314h-90v690h90v-304h323v304h90v-690z" />
    <glyph glyph-name="I" unicode="I" horiz-adv-x="266" 
d="M178 0h-90v690h90v-690z" />
    <glyph glyph-name="J" unicode="J" horiz-adv-x="312" 
d="M138 138v552h90v-558q0 -74 -27.5 -103t-106.5 -29h-66v72h55q31 0 43 15.5t12 50.5z" />
    <glyph glyph-name="K" unicode="K" horiz-adv-x="617" 
d="M178 690v-306h69l225 306h102l-251 -339l273 -351h-110l-239 308h-69v-308h-90v690h90z" />
    <glyph glyph-name="L" unicode="L" horiz-adv-x="525" 
d="M505 0h-417v690h90v-618h327v-72z" />
    <glyph glyph-name="M" unicode="M" horiz-adv-x="846" 
d="M236 690l189 -500l191 500h142v-690h-90v616l-193 -506h-110l-192 506v-616h-85v690h148z" />
    <glyph glyph-name="N" unicode="N" horiz-adv-x="685" 
d="M206 690l305 -571v571h86v-690h-119l-304 568v-568h-86v690h118z" />
    <glyph glyph-name="O" unicode="O" horiz-adv-x="709" 
d="M655 345q0 -355 -301 -355q-153 0 -226.5 88.5t-73.5 266.5t73.5 266.5t226.5 88.5t227 -88.5t74 -266.5zM561 314v64q0 250 -207 250q-206 0 -206 -250v-64q0 -252 206 -252q207 0 207 252z" />
    <glyph glyph-name="P" unicode="P" horiz-adv-x="584" 
d="M544 476q0 -100 -55.5 -154.5t-168.5 -54.5h-142v-267h-90v690h232q113 0 168.5 -56t55.5 -158zM450 455v43q0 116 -136 116h-136v-271h136q136 0 136 112z" />
    <glyph glyph-name="Q" unicode="Q" horiz-adv-x="709" 
d="M655 345q0 -190 -85 -278l99 -99l-60 -61l-110 110q-60 -27 -145 -27q-153 0 -226.5 88.5t-73.5 266.5t73.5 266.5t226.5 88.5t227 -88.5t74 -266.5zM561 314v64q0 250 -207 250q-206 0 -206 -250v-64q0 -252 206 -252q207 0 207 252z" />
    <glyph glyph-name="R" unicode="R" horiz-adv-x="611" 
d="M544 480q0 -156 -129 -193l157 -287h-104l-149 275h-141v-275h-90v690h232q224 0 224 -210zM450 460v43q0 111 -136 111h-136v-263h136q136 0 136 109z" />
    <glyph glyph-name="S" unicode="S" horiz-adv-x="612" 
d="M562 179q0 -92 -64 -140.5t-184 -48.5q-130 0 -193.5 47t-70.5 153h94q4 -70 44 -99t125 -29q156 0 156 115q0 45 -22.5 73.5t-58 41t-79 20.5t-86.5 18.5t-79 29t-58.5 58t-22.5 98.5q0 86 62 135t174 49q236 0 249 -181h-94q-6 60 -44.5 84.5t-110.5 24.5
q-142 0 -142 -112q0 -42 22.5 -68t58 -38t79 -19.5t86.5 -19t78.5 -30.5t58 -60t22.5 -102z" />
    <glyph glyph-name="T" unicode="T" horiz-adv-x="572" 
d="M552 618h-221v-618h-90v618h-221v72h532v-72z" />
    <glyph glyph-name="U" unicode="U" horiz-adv-x="671" 
d="M336 62q83 0 123.5 41t39.5 132l-2 455h90v-455q0 -120 -59.5 -182.5t-191.5 -62.5q-252 0 -252 245v455h90v-455q0 -91 39.5 -132t122.5 -41z" />
    <glyph glyph-name="V" unicode="V" horiz-adv-x="637" 
d="M388 0h-124l-250 690h90l223 -618l211 618h85z" />
    <glyph glyph-name="W" unicode="W" horiz-adv-x="901" 
d="M322 0h-134l-168 690h87l151 -622l131 622h128l142 -620l140 620h82l-156 -690h-133l-141 613z" />
    <glyph glyph-name="X" unicode="X" horiz-adv-x="638" 
d="M133 690l189 -276l183 276h93l-226 -342l238 -348h-104l-194 283l-188 -283h-94l232 348l-234 342h105z" />
    <glyph glyph-name="Y" unicode="Y" horiz-adv-x="608" 
d="M121 690l190 -298l186 298h93l-239 -379v-311h-90v311l-243 379h103z" />
    <glyph glyph-name="Z" unicode="Z" horiz-adv-x="551" 
d="M511 0h-471v72l367 546h-355v72h448v-72l-366 -546h377v-72z" />
    <glyph glyph-name="bracketleft" unicode="[" horiz-adv-x="358" 
d="M314 -210h-229v950h229v-72h-148v-806h148v-72z" />
    <glyph glyph-name="backslash" unicode="\" horiz-adv-x="479" 
d="M334 -95l-316 835h83l316 -835h-83z" />
    <glyph glyph-name="bracketright" unicode="]" horiz-adv-x="358" 
d="M44 740h229v-950h-229v72h148v806h-148v72z" />
    <glyph glyph-name="asciicircum" unicode="^" horiz-adv-x="445" 
d="M318 448l-95 206l-94 -206h-79l133 282h79l133 -282h-77z" />
    <glyph glyph-name="underscore" unicode="_" horiz-adv-x="556" 
d="M0 -117v63h556v-63h-556z" />
    <glyph glyph-name="a" unicode="a" horiz-adv-x="540" 
d="M51 134q0 72 44 107t145 45l142 14v22q0 66 -27.5 92.5t-85.5 26.5q-106 0 -116 -93h-85q7 78 58 119t143 41q198 0 198 -187v-321h-80v68q-56 -78 -166 -78q-83 0 -126.5 39t-43.5 105zM236 53q64 0 105 35.5t41 104.5v50l-138 -14q-57 -6 -82.5 -24t-25.5 -58v-22
q0 -72 100 -72z" />
    <glyph glyph-name="b" unicode="b" horiz-adv-x="588" 
d="M158 0h-80v730h85v-302q53 80 166 80q106 0 159 -67.5t53 -191.5t-53.5 -191.5t-159.5 -67.5q-117 0 -170 89v-79zM307 57q70 0 107.5 43.5t37.5 118.5v61q0 79 -37 120t-108 41q-69 0 -106 -39t-38 -114v-69q0 -75 37.5 -118.5t106.5 -43.5z" />
    <glyph glyph-name="c" unicode="c" horiz-adv-x="516" 
d="M474 150q-24 -160 -207 -160q-219 0 -219 258q0 260 219 260q91 0 143 -38t61 -126h-85q-12 97 -119 97q-130 0 -130 -161v-62q0 -161 130 -161q54 0 84.5 21t37.5 72h85z" />
    <glyph glyph-name="d" unicode="d" horiz-adv-x="588" 
d="M430 0v76q-52 -86 -163 -86q-109 0 -164 67.5t-55 190.5q0 124 55 192t164 68q107 0 159 -80v302h85v-730h-81zM281 57q70 0 107.5 43.5t37.5 118.5v69q-2 74 -39.5 113.5t-105.5 39.5q-70 0 -107 -41t-37 -120v-62q0 -77 37.5 -119t106.5 -42z" />
    <glyph glyph-name="e" unicode="e" horiz-adv-x="537" 
d="M275 57q113 0 128 93h85q-26 -160 -213 -160q-227 0 -227 259q0 125 56.5 192t170.5 67q104 0 158.5 -57t54.5 -171v-21h-351v-40q0 -77 35.5 -119.5t102.5 -42.5zM274 441q-63 0 -95 -28.5t-40 -90.5h258q-6 62 -35 90.5t-88 28.5z" />
    <glyph glyph-name="f" unicode="f" horiz-adv-x="308" 
d="M300 663h-77q-28 0 -39.5 -12t-11.5 -41v-112h128v-67h-128v-431h-85v431h-65v67h65v121q0 60 26 85.5t91 25.5h96v-67z" />
    <glyph glyph-name="g" unicode="g" horiz-adv-x="588" 
d="M511 30q0 -240 -230 -240q-91 0 -150 40.5t-67 118.5h85q6 -49 43 -70.5t89 -21.5q76 0 110.5 39.5t34.5 133.5v40q-51 -78 -156 -78q-110 0 -166 67.5t-56 189.5q0 123 55.5 191t166.5 68q109 0 160 -85v75h81v-468zM281 59q68 0 105.5 39t39.5 114v75q-2 74 -39.5 114
t-105.5 40q-70 0 -107 -41t-37 -120v-61q0 -77 37 -118.5t107 -41.5z" />
    <glyph glyph-name="h" unicode="h" horiz-adv-x="570" 
d="M412 0v317q0 131 -123 131q-59 0 -92.5 -32t-33.5 -99v-317h-85v730h85v-297q44 79 158 79q176 0 176 -195v-317h-85z" />
    <glyph glyph-name="i" unicode="i" horiz-adv-x="241" 
d="M163 0h-85v498h85v-498zM181 671q0 -60 -62 -60q-59 0 -59 60q0 59 59 59q62 0 62 -59z" />
    <glyph glyph-name="j" unicode="j" horiz-adv-x="241" 
d="M-23 -133h50q28 0 39.5 13t11.5 40v578h85v-587q0 -60 -25.5 -85.5t-86.5 -25.5h-74v67zM181 671q0 -60 -62 -60q-59 0 -59 60q0 59 59 59q62 0 62 -59z" />
    <glyph glyph-name="k" unicode="k" horiz-adv-x="515" 
d="M163 0h-85v730h85v-443h60l160 211h93l-183 -242l206 -256h-104l-176 220h-56v-220z" />
    <glyph glyph-name="l" unicode="l" horiz-adv-x="241" 
d="M163 0h-85v730h85v-730z" />
    <glyph glyph-name="m" unicode="m" horiz-adv-x="859" 
d="M389 0v317q0 131 -111 131q-116 0 -116 -131v-317h-85v498h80v-74q43 88 153 88q115 0 149 -89q46 89 163 89q86 0 125 -47.5t39 -147.5v-317h-85v317q0 131 -111 131q-113 0 -116 -124v-6v-318h-85z" />
    <glyph glyph-name="n" unicode="n" horiz-adv-x="570" 
d="M412 0v317q0 131 -123 131q-59 0 -92.5 -32t-33.5 -99v-317h-85v498h80v-74q42 88 163 88q176 0 176 -195v-317h-85z" />
    <glyph glyph-name="o" unicode="o" horiz-adv-x="562" 
d="M281 -10q-233 0 -233 259t233 259t233 -259t-233 -259zM281 57q70 0 107.5 41t37.5 121v61q0 161 -145 161q-144 0 -144 -161v-61q0 -162 144 -162z" />
    <glyph glyph-name="p" unicode="p" horiz-adv-x="588" 
d="M163 -200h-85v698h80v-79q53 89 170 89q106 0 159.5 -67.5t53.5 -191.5t-53 -191.5t-160 -67.5q-113 0 -165 80v-270zM307 57q70 0 107.5 42t37.5 120v61q0 76 -37.5 118.5t-107.5 42.5q-68 0 -105 -40.5t-39 -113.5v-68q0 -78 37 -120t107 -42z" />
    <glyph glyph-name="q" unicode="q" horiz-adv-x="588" 
d="M270 -10q-110 0 -166 67.5t-56 190.5q0 124 56 192t166 68q109 0 160 -85v75h81v-698h-85v268q-51 -78 -156 -78zM281 57q70 0 107.5 42t37.5 120v61q0 76 -37.5 118.5t-107.5 42.5q-69 0 -106.5 -42.5t-37.5 -118.5v-62q0 -77 37 -119t107 -42z" />
    <glyph glyph-name="r" unicode="r" horiz-adv-x="387" 
d="M349 498v-72h-52q-69 0 -101.5 -30.5t-32.5 -98.5v-297h-85v498h80v-86q38 86 138 86h53z" />
    <glyph glyph-name="s" unicode="s" horiz-adv-x="493" 
d="M366 134q0 36 -32 55t-77.5 26.5t-91.5 18t-78 42t-32 86.5q0 64 46 105t142 41q193 0 200 -155h-85q-4 88 -114 88q-50 0 -76 -19.5t-26 -54.5q0 -30 23 -48.5t57.5 -24.5t75 -15t75 -20.5t57.5 -41.5t23 -77q0 -72 -50.5 -111t-147.5 -39q-93 0 -151 40t-64 122h85
q8 -95 129 -95q112 0 112 77z" />
    <glyph glyph-name="t" unicode="t" horiz-adv-x="328" 
d="M22 431v67h65v160h85v-160h128v-67h-128v-311q0 -29 11.5 -41t39.5 -12h77v-67h-101q-60 0 -86 26t-26 86v319h-65z" />
    <glyph glyph-name="u" unicode="u" horiz-adv-x="570" 
d="M158 498v-317q0 -132 123 -132q126 0 126 132v317h85v-498h-81v71q-43 -85 -162 -85q-91 0 -133.5 47.5t-42.5 147.5v317h85z" />
    <glyph glyph-name="v" unicode="v" horiz-adv-x="510" 
d="M192 0l-169 498h93l143 -423l145 423h83l-169 -498h-126z" />
    <glyph glyph-name="w" unicode="w" horiz-adv-x="746" 
d="M470 0l-96 423l-96 -423h-122l-125 498h88l105 -415l94 415h117l94 -417l106 417h81l-126 -498h-120z" />
    <glyph glyph-name="x" unicode="x" horiz-adv-x="515" 
d="M206 250l-178 248h99l133 -186l126 186h90l-169 -248l180 -250h-99l-136 190l-134 -190h-90z" />
    <glyph glyph-name="y" unicode="y" horiz-adv-x="510" 
d="M68 -133h40q40 0 58 12.5t31 47.5l18 50l-192 521h93l145 -395l143 395h83l-206 -570q-29 -78 -58.5 -103t-94.5 -25h-60v67z" />
    <glyph glyph-name="z" unicode="z" horiz-adv-x="457" 
d="M422 0h-387v67l278 364h-273v67h365v-67l-279 -364h296v-67z" />
    <glyph glyph-name="braceleft" unicode="{" horiz-adv-x="374" 
d="M194 604v-192q0 -32 -2.5 -52.5t-11 -42t-27.5 -35t-49 -18.5q30 -4 49 -15.5t27.5 -33t11 -42.5t2.5 -54v-186q0 -41 12.5 -56t42.5 -15h81v-72h-114q-58 0 -80.5 27t-22.5 91v191q0 63 -15 91.5t-64 29.5v91q48 1 63.5 31t15.5 89v192q0 64 22.5 91t80.5 27h114v-73
h-81q-30 0 -42.5 -13t-12.5 -51z" />
    <glyph glyph-name="bar" unicode="|" horiz-adv-x="231" 
d="M156 -200h-81v930h81v-930z" />
    <glyph glyph-name="braceright" unicode="}" horiz-adv-x="374" 
d="M180 -74v192q0 32 2.5 52.5t11 42t27.5 35t49 18.5q-30 4 -49 15.5t-27.5 33t-11 42.5t-2.5 54v186q0 41 -12.5 56t-42.5 15h-81v72h114q58 0 80.5 -27t22.5 -91v-191q0 -63 15 -91.5t64 -29.5v-91q-48 -1 -63.5 -31t-15.5 -89v-192q0 -64 -22.5 -91t-80.5 -27h-114v73
h81q30 0 42.5 13t12.5 51z" />
    <glyph glyph-name="asciitilde" unicode="~" horiz-adv-x="586" 
d="M203 440q30 0 59.5 -14.5t48.5 -32.5t41 -32.5t40 -14.5q32 0 44.5 20t13.5 69h72q-1 -82 -35.5 -121.5t-94.5 -39.5q-31 0 -59 14.5t-46 32.5t-40.5 32.5t-43.5 14.5q-35 0 -50.5 -21.5t-17.5 -66.5h-71q1 79 37.5 119.5t101.5 40.5z" />
    <glyph glyph-name="nonbreakingspace" unicode="&#xa0;" horiz-adv-x="200" 
 />
    <glyph glyph-name="cent" unicode="&#xa2;" horiz-adv-x="516" 
d="M309 -120h-81v112q-180 21 -180 256q0 236 180 258v112h81v-112q147 -16 162 -162h-85q-12 97 -119 97q-130 0 -130 -161v-62q0 -161 130 -161q54 0 84.5 21t37.5 72h85q-21 -142 -165 -158v-112z" />
    <glyph glyph-name="sterling" unicode="&#xa3;" horiz-adv-x="596" 
d="M68 269v72h88q-21 31 -31 48.5t-21 50.5t-11 66q0 96 58 145t166 49q211 0 224 -182h-94q-6 60 -38.5 85t-91.5 25q-64 0 -97.5 -26t-33.5 -87v-13q0 -30 9 -54t32 -60.5t29 -46.5h204v-72h-177q6 -34 6 -56q0 -94 -75 -141h331v-72h-496v72q66 0 111.5 33t45.5 94v25
q0 22 -9 45h-129z" />
    <glyph glyph-name="currency" unicode="&#xa4;" horiz-adv-x="613" 
d="M480 125l-77 77q-39 -21 -96 -21q-54 0 -98 21l-76 -77l-51 51l73 72q-29 41 -29 100q0 60 30 101l-74 74l50 50l78 -78q41 22 97 22q54 0 96 -22l78 78l50 -50l-75 -75q31 -43 31 -100q0 -56 -30 -99l74 -73zM307 247q46 0 72.5 26t26.5 75q0 48 -27 75.5t-72 27.5
q-46 0 -72.5 -27.5t-26.5 -75.5q0 -49 26.5 -75t72.5 -26z" />
    <glyph glyph-name="yen" unicode="&#xa5;" horiz-adv-x="608" 
d="M121 690l190 -285l186 285h93l-239 -363h168v-73h-168v-70h168v-72h-168v-112h-90v112h-169v72h169v70h-169v73h169l-243 363h103z" />
    <glyph glyph-name="brokenbar" unicode="&#xa6;" horiz-adv-x="231" 
d="M156 360h-81v370h81v-370zM156 -200h-81v370h81v-370z" />
    <glyph glyph-name="section" unicode="&#xa7;" horiz-adv-x="572" 
d="M522 273q0 -94 -96 -151q71 -52 71 -123q0 -74 -56 -115.5t-154 -41.5q-207 0 -215 164h94q4 -47 29.5 -69t91.5 -22q116 0 116 71v20q0 32 -36.5 58t-88.5 46.5t-103.5 44t-88 64.5t-36.5 95q0 99 100 154q-59 47 -59 115q0 74 53 115.5t146 41.5q199 0 205 -163h-93
q-4 47 -27.5 69t-84.5 22q-106 0 -106 -72v-20q0 -32 35 -57t84.5 -45t99 -44t84.5 -64t35 -93zM431 273q0 24 -13 43.5t-39 35t-51 27t-62.5 27.5t-60.5 28q-64 -41 -64 -104v-15q0 -24 13 -43.5t39 -35.5t50.5 -27.5t63.5 -27.5t62 -27q62 41 62 103v16z" />
    <glyph glyph-name="dieresis" unicode="&#xa8;" horiz-adv-x="478" 
d="M403 671q0 -60 -60 -60t-60 60q0 59 60 59t60 -59zM196 671q0 -60 -61 -60q-59 0 -59 60q0 59 59 59q61 0 61 -59z" />
    <glyph glyph-name="copyright" unicode="&#xa9;" horiz-adv-x="846" 
d="M588 264q-17 -121 -167 -121q-90 0 -136 51.5t-46 150.5q0 204 184 204q153 0 164 -124h-80q-11 56 -84 56q-99 0 -99 -111v-48q0 -111 97 -111q38 0 58.5 12t27.5 41h81zM786 345q0 -169 -100 -262t-262 -93q-163 0 -263.5 93t-100.5 262t100.5 262t263.5 93
q162 0 262 -93t100 -262zM424 49q136 0 215.5 76t79.5 220t-79.5 220t-215.5 76t-216 -76t-80 -220t80 -220t216 -76z" />
    <glyph glyph-name="ordfeminine" unicode="&#xaa;" horiz-adv-x="489" 
d="M345 581v22q0 101 -96 101q-88 0 -98 -82h-84q12 141 182 141q86 0 133 -40.5t47 -119.5v-283h-80v64q-50 -74 -148 -74q-74 0 -112 33t-38 92q0 63 40.5 94t131.5 40zM136 446v-18q0 -61 84 -61q55 0 90 31.5t35 93.5v39l-118 -12q-47 -5 -69 -21t-22 -52z" />
    <glyph glyph-name="guillemotleft" unicode="&#xab;" horiz-adv-x="483" 
d="M234 388l-138 -128l139 -128v-102l-200 186v81l199 186v-95zM443 388l-138 -128l139 -128v-102l-200 186v81l199 186v-95z" />
    <glyph glyph-name="logicalnot" unicode="&#xac;" 
d="M561 162h-76v200h-420v72h496v-272z" />
    <glyph glyph-name="uni00AD" unicode="&#xad;" horiz-adv-x="417" 
d="M367 216h-317v80h317v-80z" />
    <glyph glyph-name="registered" unicode="&#xae;" horiz-adv-x="581" 
d="M521 477q0 -107 -63.5 -165t-167.5 -58t-167 58t-63 165q0 106 63.5 164.5t166.5 58.5q104 0 167.5 -58.5t63.5 -164.5zM290 297q87 0 135.5 46t48.5 134t-48.5 134t-135.5 46q-86 0 -134 -46t-48 -134t48 -134t134 -46zM393 523q0 34 -22.5 55t-64.5 21h-100v-235h49v86
h41l50 -86h52l-53 92q48 15 48 67zM343 527v-9q0 -29 -36 -29h-52v70h52q36 0 36 -32z" />
    <glyph glyph-name="degree" unicode="&#xb0;" horiz-adv-x="440" 
d="M220 385q-80 0 -125 42.5t-45 113.5q0 72 45 115.5t125 43.5q79 0 124.5 -44t45.5 -115t-45 -113.5t-125 -42.5zM220 451q42 0 65.5 23t23.5 67q0 45 -24 69t-65 24t-64.5 -24t-23.5 -69q0 -44 23.5 -67t64.5 -23z" />
    <glyph glyph-name="plusminus" unicode="&#xb1;" 
d="M275 244v177h-210v72h210v177h76v-177h210v-72h-210v-177h-76zM561 108h-496v72h496v-72z" />
    <glyph glyph-name="twosuperior" unicode="&#xb2;" horiz-adv-x="381" 
d="M194 744q-36 0 -54 -15t-21 -48h-84q5 129 159 129t154 -126q0 -43 -22 -72.5t-54 -45.5t-65 -30.5t-58.5 -37.5t-30.5 -57h230v-66h-316v26q0 57 24 96.5t58 59t67.5 35t57.5 35t24 46.5v15q0 56 -69 56z" />
    <glyph glyph-name="threesuperior" unicode="&#xb3;" horiz-adv-x="416" 
d="M212 430q82 0 82 55v21q0 57 -83 57h-40v66h40q68 0 68 50v16q0 50 -68 50q-70 0 -77 -51h-84q11 116 161 116q67 0 109.5 -28.5t42.5 -84.5q0 -37 -23 -64t-60 -34q44 -7 70.5 -35t26.5 -70q0 -61 -43.5 -95t-120.5 -34q-164 0 -174 129h83q5 -33 26 -48.5t64 -15.5z
" />
    <glyph glyph-name="paragraph" unicode="&#xb6;" horiz-adv-x="625" 
d="M358 -150h-81v428h-12q-112 0 -168.5 46.5t-56.5 158.5t55 159.5t164 47.5h99v-840zM537 -150h-81v840h81v-840z" />
    <glyph glyph-name="periodcentered" unicode="&#xb7;" horiz-adv-x="235" 
d="M177 258q0 -60 -61 -60q-58 0 -58 60q0 59 58 59q61 0 61 -59z" />
    <glyph glyph-name="onesuperior" unicode="&#xb9;" horiz-adv-x="287" 
d="M28 637v84l100 79h82v-425h-82v342z" />
    <glyph glyph-name="ordmasculine" unicode="&#xba;" horiz-adv-x="514" 
d="M257 309q-209 0 -209 226t209 226q105 0 157 -58.5t52 -167.5q0 -226 -209 -226zM257 373q124 0 124 133v59q0 65 -32 98.5t-92 33.5q-124 0 -124 -132v-59q0 -133 124 -133z" />
    <glyph glyph-name="guillemotright" unicode="&#xbb;" horiz-adv-x="483" 
d="M249 125l138 128l-139 128v102l200 -186v-81l-199 -186v95zM40 125l138 128l-139 128v102l200 -186v-81l-199 -186v95z" />
    <glyph glyph-name="onequarter" unicode="&#xbc;" horiz-adv-x="835" 
d="M28 587v84l100 79h82v-425h-82v342zM100 0l522 750h88l-523 -750h-87zM630 425h119v-268h70v-66h-70v-91h-83v91h-230v57zM520 157h146v208z" />
    <glyph glyph-name="onehalf" unicode="&#xbd;" horiz-adv-x="878" 
d="M28 587v84l100 79h82v-425h-82v342zM100 0l522 750h88l-523 -750h-87zM694 369q-36 0 -54 -15t-21 -48h-84q5 129 159 129t154 -126q0 -43 -22 -72.5t-54 -45.5t-65 -30.5t-58.5 -37.5t-30.5 -57h230v-66h-316v26q0 57 24 96.5t58 59t67.5 35t57.5 35t24 46.5v15
q0 56 -69 56z" />
    <glyph glyph-name="threequarters" unicode="&#xbe;" horiz-adv-x="929" 
d="M196 0l522 750h88l-523 -750h-87zM724 425h119v-268h70v-66h-70v-91h-83v91h-230v57zM614 157h146v208zM212 380q82 0 82 55v21q0 57 -83 57h-40v66h40q68 0 68 50v16q0 50 -68 50q-70 0 -77 -51h-84q11 116 161 116q67 0 109.5 -28.5t42.5 -84.5q0 -37 -23 -64t-60 -34
q44 -7 70.5 -35t26.5 -70q0 -61 -43.5 -95t-120.5 -34q-164 0 -174 129h83q5 -33 26 -48.5t64 -15.5z" />
    <glyph glyph-name="Edieresis" unicode="&#xcb;" horiz-adv-x="569" 
d="M519 0h-431v690h423v-72h-333v-232h266v-72h-266v-242h341v-72zM471 844q0 -60 -60 -60t-60 60q0 59 60 59t60 -59zM256 844q0 -60 -60 -60q-59 0 -59 60q0 59 59 59q60 0 60 -59z" />
    <glyph glyph-name="multiply" unicode="&#xd7;" 
d="M74 163l187 187l-187 188l51 51l187 -188l188 188l51 -51l-188 -188l188 -187l-51 -51l-188 187l-187 -187z" />
    <glyph glyph-name="edieresis" unicode="&#xeb;" horiz-adv-x="537" 
d="M275 57q113 0 128 93h85q-26 -160 -213 -160q-227 0 -227 259q0 125 56.5 192t170.5 67q104 0 158.5 -57t54.5 -171v-21h-351v-40q0 -77 35.5 -119.5t102.5 -42.5zM274 441q-63 0 -95 -28.5t-40 -90.5h258q-6 62 -35 90.5t-88 28.5zM434 671q0 -60 -60 -60t-60 60
q0 59 60 59t60 -59zM227 671q0 -60 -61 -60q-59 0 -59 60q0 59 59 59q61 0 61 -59z" />
    <glyph glyph-name="divide" unicode="&#xf7;" 
d="M372 543q0 -60 -60 -60q-59 0 -59 60q0 59 59 59q60 0 60 -59zM372 158q0 -59 -60 -59q-59 0 -59 59q0 60 59 60q60 0 60 -60zM561 314h-496v72h496v-72z" />
    <glyph glyph-name="dotlessi" unicode="&#x131;" horiz-adv-x="241" 
d="M163 0h-85v498h85v-498z" />
    <glyph glyph-name="dotlessj" unicode="&#x237;" horiz-adv-x="241" 
d="M-23 -133h50q28 0 39.5 13t11.5 40v578h85v-587q0 -60 -25.5 -85.5t-86.5 -25.5h-74v67z" />
    <glyph glyph-name="uni02BC" unicode="&#x2bc;" horiz-adv-x="235" 
d="M116 700q61 0 61 -65v-50q0 -73 -25 -102.5t-83 -29.5v57q25 0 34 14.5t9 44.5v12q-54 3 -54 64q0 55 58 55z" />
    <glyph glyph-name="dotaccent" unicode="&#x2d9;" horiz-adv-x="270" 
d="M196 671q0 -60 -62 -60q-59 0 -59 60q0 59 59 59q62 0 62 -59z" />
    <glyph glyph-name="afii10023" unicode="&#x401;" horiz-adv-x="569" 
d="M519 0h-431v690h423v-72h-333v-232h266v-72h-266v-242h341v-72zM471 844q0 -60 -60 -60t-60 60q0 59 60 59t60 -59zM256 844q0 -60 -60 -60q-59 0 -59 60q0 59 59 59q60 0 60 -59z" />
    <glyph glyph-name="afii10053" unicode="&#x404;" horiz-adv-x="658" 
d="M342 -10q-144 0 -216 91t-72 264t72 264t216 91q124 0 186.5 -50.5t79.5 -160.5h-94q-11 72 -52.5 105.5t-119.5 33.5q-191 0 -194 -242h286v-72h-286q0 -252 194 -252q76 0 118 30.5t55 103.5h94q-17 -107 -83 -156.5t-184 -49.5z" />
    <glyph glyph-name="afii10055" unicode="&#x406;" horiz-adv-x="266" 
d="M178 0h-90v690h90v-690z" />
    <glyph glyph-name="afii10056" unicode="&#x407;" horiz-adv-x="266" 
d="M254 844q0 -60 -54 -60q-55 0 -55 60q0 59 55 59q54 0 54 -59zM122 844q0 -60 -55 -60q-53 0 -53 60q0 59 53 59q55 0 55 -59zM178 0h-90v690h90v-690z" />
    <glyph glyph-name="afii10057" unicode="&#x408;" horiz-adv-x="312" 
d="M138 138v552h90v-558q0 -74 -27.5 -103t-106.5 -29h-66v72h55q31 0 43 15.5t12 50.5z" />
    <glyph glyph-name="afii10062" unicode="&#x40e;" horiz-adv-x="591" 
d="M186 0l79 183l-245 507h94l195 -404l174 404h88l-297 -690h-88zM385 895h77q-2 -149 -162 -149t-162 149h77q1 -47 21 -67.5t64 -20.5t64 20.5t21 67.5z" />
    <glyph glyph-name="afii10017" unicode="&#x410;" horiz-adv-x="637" 
d="M243 690h136l244 -690h-90l-70 197h-299l-65 -197h-85zM309 633l-121 -363h249z" />
    <glyph glyph-name="afii10018" unicode="&#x411;" horiz-adv-x="609" 
d="M552 208q0 -99 -57 -153.5t-171 -54.5h-236v690h420v-72h-330v-206h146q114 0 171 -53t57 -151zM458 228q0 108 -140 108h-140v-260h140q140 0 140 110v42z" />
    <glyph glyph-name="afii10019" unicode="&#x412;" horiz-adv-x="624" 
d="M575 192q0 -192 -213 -192h-274v690h258q204 0 204 -172q0 -123 -104 -158q129 -30 129 -168zM482 218q0 100 -128 100h-176v-246h176q128 0 128 103v43zM456 526q0 92 -109 92h-169v-232h169q109 0 109 102v38z" />
    <glyph glyph-name="afii10020" unicode="&#x413;" horiz-adv-x="500" 
d="M88 690h392v-72h-302v-618h-90v690z" />
    <glyph glyph-name="afii10021" unicode="&#x414;" horiz-adv-x="699" 
d="M10 -150v222h71q72 120 72 373v245h438v-618h88v-222h-81v150h-507v-150h-81zM501 618h-267v-173q0 -257 -63 -373h330v546z" />
    <glyph glyph-name="afii10022" unicode="&#x415;" horiz-adv-x="569" 
d="M519 0h-431v690h423v-72h-333v-232h266v-72h-266v-242h341v-72z" />
    <glyph glyph-name="afii10024" unicode="&#x416;" horiz-adv-x="910" 
d="M498 690v-305h60l207 305h101l-232 -339l251 -351h-108l-220 308h-59v-308h-90v308h-60l-219 -308h-104l248 346l-236 344h104l207 -305h60v305h90z" />
    <glyph glyph-name="afii10025" unicode="&#x417;" horiz-adv-x="614" 
d="M304 62q166 0 166 109v37q0 52 -41 79.5t-119 27.5h-85v72h85q66 0 104 26t38 76v34q0 105 -144 105q-72 0 -112.5 -31t-45.5 -107h-94q8 210 248 210q243 0 243 -188q0 -56 -34.5 -100t-93.5 -58q67 -12 106 -55t39 -108q0 -201 -260 -201q-124 0 -185.5 51.5
t-69.5 158.5h94q11 -138 161 -138z" />
    <glyph glyph-name="afii10026" unicode="&#x418;" horiz-adv-x="689" 
d="M192 0h-104v690h90v-575l318 575h105v-690h-90v575z" />
    <glyph glyph-name="afii10027" unicode="&#x419;" horiz-adv-x="689" 
d="M192 0h-104v690h90v-575l318 575h105v-690h-90v575zM431 895h77q-2 -149 -162 -149t-162 149h77q1 -47 21 -67.5t64 -20.5t64 20.5t21 67.5z" />
    <glyph glyph-name="afii10028" unicode="&#x41a;" horiz-adv-x="617" 
d="M178 690v-306h69l225 306h102l-251 -339l273 -351h-110l-239 308h-69v-308h-90v690h90z" />
    <glyph glyph-name="afii10029" unicode="&#x41b;" horiz-adv-x="671" 
d="M583 0h-90v618h-266v-261q0 -140 -19 -217.5t-58.5 -108.5t-109.5 -31h-24v81h17q42 0 65.5 23.5t35 83.5t11.5 169v333h438v-690z" />
    <glyph glyph-name="afii10030" unicode="&#x41c;" horiz-adv-x="846" 
d="M236 690l189 -500l191 500h142v-690h-90v616l-193 -506h-110l-192 506v-616h-85v690h148z" />
    <glyph glyph-name="afii10031" unicode="&#x41d;" horiz-adv-x="679" 
d="M591 0h-90v314h-323v-314h-90v690h90v-304h323v304h90v-690z" />
    <glyph glyph-name="afii10032" unicode="&#x41e;" horiz-adv-x="709" 
d="M655 345q0 -355 -301 -355q-153 0 -226.5 88.5t-73.5 266.5t73.5 266.5t226.5 88.5t227 -88.5t74 -266.5zM561 314v64q0 250 -207 250q-206 0 -206 -250v-64q0 -252 206 -252q207 0 207 252z" />
    <glyph glyph-name="afii10033" unicode="&#x41f;" horiz-adv-x="669" 
d="M581 0h-90v618h-313v-618h-90v690h493v-690z" />
    <glyph glyph-name="afii10034" unicode="&#x420;" horiz-adv-x="584" 
d="M544 476q0 -100 -55.5 -154.5t-168.5 -54.5h-142v-267h-90v690h232q113 0 168.5 -56t55.5 -158zM450 455v43q0 116 -136 116h-136v-271h136q136 0 136 112z" />
    <glyph glyph-name="afii10035" unicode="&#x421;" horiz-adv-x="658" 
d="M342 -10q-144 0 -216 91t-72 264t72 264t216 91q124 0 186.5 -50.5t79.5 -160.5h-94q-11 72 -52.5 105.5t-119.5 33.5q-194 0 -194 -250v-64q0 -252 194 -252q76 0 118 30.5t55 103.5h94q-17 -107 -83 -156.5t-184 -49.5z" />
    <glyph glyph-name="afii10036" unicode="&#x422;" horiz-adv-x="572" 
d="M552 618h-221v-618h-90v618h-221v72h532v-72z" />
    <glyph glyph-name="afii10037" unicode="&#x423;" horiz-adv-x="591" 
d="M186 0l79 183l-245 507h94l195 -404l174 404h88l-297 -690h-88z" />
    <glyph glyph-name="afii10038" unicode="&#x424;" horiz-adv-x="812" 
d="M451 94v-104h-90v104q-321 6 -321 265q0 131 78.5 197t242.5 68v76h90v-76q164 -2 242.5 -68t78.5 -197q0 -259 -321 -265zM361 170v378q-227 -4 -227 -169v-41q0 -85 52.5 -125.5t174.5 -42.5zM451 548v-378q122 2 174.5 42.5t52.5 125.5v41q0 83 -54.5 125t-172.5 44z
" />
    <glyph glyph-name="afii10039" unicode="&#x425;" horiz-adv-x="638" 
d="M133 690l189 -276l183 276h93l-226 -342l238 -348h-104l-194 283l-188 -283h-94l232 348l-234 342h105z" />
    <glyph glyph-name="afii10040" unicode="&#x426;" horiz-adv-x="689" 
d="M88 690h90v-618h313v618h90v-618h88v-222h-81v150h-500v690z" />
    <glyph glyph-name="afii10041" unicode="&#x427;" horiz-adv-x="648" 
d="M560 690v-690h-90v282q-84 -10 -151 -10q-125 0 -185.5 47.5t-60.5 165.5v205h90v-205q0 -81 39 -110.5t121 -29.5q85 0 147 10v335h90z" />
    <glyph glyph-name="afii10042" unicode="&#x428;" horiz-adv-x="936" 
d="M758 690h90v-690h-760v690h90v-618h245v618h90v-618h245v618z" />
    <glyph glyph-name="afii10043" unicode="&#x429;" horiz-adv-x="955" 
d="M758 690h90v-618h87v-222h-81v150h-766v690h90v-618h245v618h90v-618h245v618z" />
    <glyph glyph-name="afii10044" unicode="&#x42a;" horiz-adv-x="666" 
d="M626 220q0 -104 -56.5 -162t-170.5 -58h-229v618h-150v72h240v-254h139q114 0 170.5 -56.5t56.5 -159.5zM532 240q0 119 -139 119h-133v-283h133q139 0 139 122v42z" />
    <glyph glyph-name="afii10045" unicode="&#x42b;" horiz-adv-x="813" 
d="M544 220q0 -104 -56.5 -162t-170.5 -58h-229v690h90v-254h139q114 0 170.5 -56.5t56.5 -159.5zM450 240q0 119 -139 119h-133v-283h133q139 0 139 122v42zM725 0h-90v690h90v-690z" />
    <glyph glyph-name="afii10046" unicode="&#x42c;" horiz-adv-x="584" 
d="M544 220q0 -104 -56.5 -162t-170.5 -58h-229v690h90v-254h139q114 0 170.5 -56.5t56.5 -159.5zM450 240q0 119 -139 119h-133v-283h133q139 0 139 122v42z" />
    <glyph glyph-name="afii10047" unicode="&#x42d;" horiz-adv-x="658" 
d="M315 -10q-118 0 -187 52t-79 154h94q9 -72 52.5 -103t119.5 -31q195 0 195 252h-286v72h286q-3 242 -190 242q-149 0 -170 -139h-94q11 101 79.5 156t184.5 55q144 0 214 -88t70 -267q0 -355 -289 -355z" />
    <glyph glyph-name="afii10048" unicode="&#x42e;" horiz-adv-x="920" 
d="M866 345q0 -355 -291 -355q-278 0 -290 324h-107v-314h-90v690h90v-304h108q15 314 289 314q291 0 291 -355zM772 314v64q0 250 -197 250q-196 0 -196 -250v-64q0 -252 196 -252q197 0 197 252z" />
    <glyph glyph-name="afii10049" unicode="&#x42f;" horiz-adv-x="610" 
d="M65 480q0 99 57 154.5t167 55.5h233v-690h-90v275h-143l-153 -275h-96l160 286q-135 39 -135 194zM159 503v-43q0 -109 136 -109h137v263h-137q-136 0 -136 -111z" />
    <glyph glyph-name="afii10065" unicode="&#x430;" horiz-adv-x="540" 
d="M51 134q0 72 44 107t145 45l142 14v22q0 66 -27.5 92.5t-85.5 26.5q-106 0 -116 -93h-85q7 78 58 119t143 41q198 0 198 -187v-321h-80v68q-56 -78 -166 -78q-83 0 -126.5 39t-43.5 105zM236 53q64 0 105 35.5t41 104.5v50l-138 -14q-57 -6 -82.5 -24t-25.5 -58v-22
q0 -72 100 -72z" />
    <glyph glyph-name="afii10066" unicode="&#x431;" horiz-adv-x="567" 
d="M53 267q0 175 30.5 273t92 138t171.5 45q98 5 145 11v-75q-34 -5 -138 -10q-63 -4 -100.5 -14.5t-67 -39t-43.5 -79.5t-20 -134q51 116 185 116q105 0 158 -65.5t53 -183.5q0 -124 -58 -191.5t-175 -67.5q-122 0 -177.5 69.5t-55.5 207.5zM286 57q145 0 145 162v52
q0 78 -38 119t-107 41q-70 0 -107 -41t-37 -119v-52q0 -162 144 -162z" />
    <glyph glyph-name="afii10067" unicode="&#x432;" horiz-adv-x="522" 
d="M475 143q0 -73 -44.5 -108t-137.5 -35h-215v498h204q87 0 129.5 -32t42.5 -89q0 -92 -94 -117q115 -22 115 -117zM386 132v22q0 70 -93 70h-130v-161h130q48 0 70.5 16t22.5 53zM365 369q0 32 -19 48.5t-64 16.5h-119v-146h121q81 0 81 62v19z" />
    <glyph glyph-name="afii10068" unicode="&#x433;" horiz-adv-x="428" 
d="M78 498h330v-67h-245v-431h-85v498z" />
    <glyph glyph-name="afii10069" unicode="&#x434;" horiz-adv-x="570" 
d="M10 -140v207h59q51 94 51 275v156h355v-431h75v-207h-75v140h-389v-140h-76zM390 431h-194v-89q0 -189 -43 -275h237v364z" />
    <glyph glyph-name="afii10070" unicode="&#x435;" horiz-adv-x="537" 
d="M275 57q113 0 128 93h85q-26 -160 -213 -160q-227 0 -227 259q0 125 56.5 192t170.5 67q104 0 158.5 -57t54.5 -171v-21h-351v-40q0 -77 35.5 -119.5t102.5 -42.5zM274 441q-63 0 -95 -28.5t-40 -90.5h258q-6 62 -35 90.5t-88 28.5z" />
    <glyph glyph-name="afii10072" unicode="&#x436;" horiz-adv-x="738" 
d="M410 0h-85v220h-53l-155 -220h-101l180 252l-162 246h95l139 -211h57v211h85v-211h56l141 211h93l-161 -242l183 -256h-103l-156 220h-53v-220z" />
    <glyph glyph-name="afii10073" unicode="&#x437;" horiz-adv-x="508" 
d="M257 225h-68v67h68q96 0 96 65v20q0 64 -99 64q-55 0 -81 -19.5t-33 -63.5h-89q18 150 204 150q90 0 138.5 -36t48.5 -98q0 -86 -93 -111q56 -12 81.5 -45t25.5 -73q0 -75 -52 -115t-152 -40q-200 0 -209 166h89q5 -52 32 -75.5t88 -23.5q115 0 115 80v15q0 39 -27 56
t-83 17z" />
    <glyph glyph-name="afii10074" unicode="&#x438;" horiz-adv-x="576" 
d="M498 0h-85v406l-230 -406h-105v498h85v-407l230 407h105v-498z" />
    <glyph glyph-name="afii10075" unicode="&#x439;" horiz-adv-x="576" 
d="M498 0h-85v406l-230 -406h-105v498h85v-407l230 407h105v-498zM372 728h73q0 -149 -157 -149t-157 149h73q0 -50 20 -70t64 -20t64 20t20 70z" />
    <glyph glyph-name="afii10076" unicode="&#x43a;" horiz-adv-x="515" 
d="M163 0h-85v498h85v-211h60l160 211h93l-183 -242l206 -256h-104l-176 220h-56v-220z" />
    <glyph glyph-name="afii10077" unicode="&#x43b;" horiz-adv-x="547" 
d="M20 0v76h22q43 0 59.5 38t16.5 150v234h351v-498h-85v431h-190v-167q0 -109 -15 -165.5t-46 -77.5t-91 -21h-22z" />
    <glyph glyph-name="afii10078" unicode="&#x43c;" horiz-adv-x="703" 
d="M209 498l145 -364l141 364h130v-498h-85v423l-140 -361h-101l-141 353v-415h-80v498h131z" />
    <glyph glyph-name="afii10079" unicode="&#x43d;" horiz-adv-x="566" 
d="M488 0h-85v222h-240v-222h-85v498h85v-208h240v208h85v-498z" />
    <glyph glyph-name="afii10080" unicode="&#x43e;" horiz-adv-x="562" 
d="M281 -10q-233 0 -233 259t233 259t233 -259t-233 -259zM281 57q70 0 107.5 41t37.5 121v61q0 161 -145 161q-144 0 -144 -161v-61q0 -162 144 -162z" />
    <glyph glyph-name="afii10081" unicode="&#x43f;" horiz-adv-x="557" 
d="M479 0h-85v431h-231v-431h-85v498h401v-498z" />
    <glyph glyph-name="afii10082" unicode="&#x440;" horiz-adv-x="588" 
d="M163 -200h-85v698h80v-79q53 89 170 89q106 0 159.5 -67.5t53.5 -191.5t-53 -191.5t-160 -67.5q-113 0 -165 80v-270zM307 57q70 0 107.5 42t37.5 120v61q0 76 -37.5 118.5t-107.5 42.5q-68 0 -105 -40.5t-39 -113.5v-68q0 -78 37 -120t107 -42z" />
    <glyph glyph-name="afii10083" unicode="&#x441;" horiz-adv-x="516" 
d="M474 150q-24 -160 -207 -160q-219 0 -219 258q0 260 219 260q91 0 143 -38t61 -126h-85q-12 97 -119 97q-130 0 -130 -161v-62q0 -161 130 -161q54 0 84.5 21t37.5 72h85z" />
    <glyph glyph-name="afii10084" unicode="&#x442;" horiz-adv-x="455" 
d="M435 431h-165v-431h-85v431h-165v67h415v-67z" />
    <glyph glyph-name="afii10085" unicode="&#x443;" horiz-adv-x="510" 
d="M68 -133h40q40 0 58 12.5t31 47.5l18 50l-192 521h93l145 -395l143 395h83l-206 -570q-29 -78 -58.5 -103t-94.5 -25h-60v67z" />
    <glyph glyph-name="afii10086" unicode="&#x444;" horiz-adv-x="719" 
d="M48 249q0 128 69.5 193.5t199.5 65.5v222h85v-222q130 0 199.5 -65t69.5 -194t-69.5 -194t-199.5 -65v-190h-85v190q-130 0 -199.5 64.5t-69.5 194.5zM137 221q0 -84 43 -122t137 -38v376q-180 0 -180 -159v-57zM402 437v-376q92 0 136 38t44 122v57q0 159 -180 159z" />
    <glyph glyph-name="afii10087" unicode="&#x445;" horiz-adv-x="515" 
d="M206 250l-178 248h99l133 -186l126 186h90l-169 -248l180 -250h-99l-136 190l-134 -190h-90z" />
    <glyph glyph-name="afii10088" unicode="&#x446;" horiz-adv-x="574" 
d="M78 498h85v-431h231v431h85v-431h75v-207h-75v140h-401v498z" />
    <glyph glyph-name="afii10089" unicode="&#x447;" horiz-adv-x="533" 
d="M455 498v-498h-85v204q-49 -10 -110 -10q-110 0 -153.5 39.5t-43.5 129.5v135h85v-136q0 -57 26.5 -79t91.5 -22t104 10v227h85z" />
    <glyph glyph-name="afii10090" unicode="&#x448;" horiz-adv-x="781" 
d="M703 498v-498h-625v498h85v-431h185v431h85v-431h185v431h85z" />
    <glyph glyph-name="afii10091" unicode="&#x449;" horiz-adv-x="798" 
d="M703 498v-431h75v-207h-75v140h-625v498h85v-431h185v431h85v-431h185v431h85z" />
    <glyph glyph-name="afii10092" unicode="&#x44a;" horiz-adv-x="526" 
d="M122 0v431h-112v67h197v-171h120q86 0 129.5 -41t43.5 -117q0 -169 -173 -169h-205zM411 182q0 37 -23.5 57.5t-69.5 20.5h-111v-193h111q93 0 93 85v30z" />
    <glyph glyph-name="afii10093" unicode="&#x44b;" horiz-adv-x="692" 
d="M78 0v498h85v-171h120q86 0 129.5 -41t43.5 -117q0 -169 -173 -169h-205zM367 182q0 37 -23.5 57.5t-69.5 20.5h-111v-193h111q93 0 93 85v30zM614 0h-85v498h85v-498z" />
    <glyph glyph-name="afii10094" unicode="&#x44c;" horiz-adv-x="478" 
d="M78 0v498h85v-171h120q86 0 129.5 -41t43.5 -117q0 -169 -173 -169h-205zM367 182q0 37 -23.5 57.5t-69.5 20.5h-111v-193h111q93 0 93 85v30z" />
    <glyph glyph-name="afii10095" unicode="&#x44d;" horiz-adv-x="516" 
d="M43 150h85q14 -93 121 -93q66 0 98 39t33 121h-193v71h193q-5 153 -128 153q-108 0 -123 -97h-85q24 164 208 164q217 0 217 -260q0 -258 -220 -258q-181 0 -206 160z" />
    <glyph glyph-name="afii10096" unicode="&#x44e;" horiz-adv-x="762" 
d="M486 -10q-216 0 -228 232h-95v-222h-85v498h85v-208h96q18 218 227 218q229 0 229 -259t-229 -259zM486 57q140 0 140 163v58q0 163 -140 163q-139 0 -139 -163v-58q0 -163 139 -163z" />
    <glyph glyph-name="afii10097" unicode="&#x44f;" horiz-adv-x="526" 
d="M140 0h-92l127 202q-56 13 -84.5 51t-28.5 92q0 71 41.5 112t117.5 41h228v-498h-85v195h-102zM151 329q0 -35 23.5 -53t65.5 -18h124v176h-124q-89 0 -89 -71v-34z" />
    <glyph glyph-name="afii10071" unicode="&#x451;" horiz-adv-x="537" 
d="M275 57q113 0 128 93h85q-26 -160 -213 -160q-227 0 -227 259q0 125 56.5 192t170.5 67q104 0 158.5 -57t54.5 -171v-21h-351v-40q0 -77 35.5 -119.5t102.5 -42.5zM274 441q-63 0 -95 -28.5t-40 -90.5h258q-6 62 -35 90.5t-88 28.5zM434 671q0 -60 -60 -60t-60 60
q0 59 60 59t60 -59zM227 671q0 -60 -61 -60q-59 0 -59 60q0 59 59 59q61 0 61 -59z" />
    <glyph glyph-name="afii10101" unicode="&#x454;" horiz-adv-x="516" 
d="M389 150h85q-27 -160 -207 -160q-110 0 -165.5 66.5t-53.5 191.5q2 260 219 260q88 0 142 -41t62 -123h-85q-12 97 -119 97q-127 0 -130 -153h193v-71h-193q0 -160 130 -160q51 0 82 21t40 72z" />
    <glyph glyph-name="afii10103" unicode="&#x456;" horiz-adv-x="241" 
d="M163 0h-85v498h85v-498zM181 671q0 -60 -62 -60q-59 0 -59 60q0 59 59 59q62 0 62 -59z" />
    <glyph glyph-name="afii10104" unicode="&#x457;" horiz-adv-x="241" 
d="M233 671q0 -60 -52 -60t-52 60q0 59 52 59t52 -59zM112 671q0 -60 -53 -60q-51 0 -51 60q0 59 51 59q53 0 53 -59zM163 0h-85v498h85v-498z" />
    <glyph glyph-name="afii10105" unicode="&#x458;" horiz-adv-x="241" 
d="M-23 -133h50q28 0 39.5 13t11.5 40v578h85v-587q0 -60 -25.5 -85.5t-86.5 -25.5h-74v67zM181 671q0 -60 -62 -60q-59 0 -59 60q0 59 59 59q62 0 62 -59z" />
    <glyph glyph-name="afii10110" unicode="&#x45e;" horiz-adv-x="510" 
d="M68 -133h40q40 0 58 12.5t31 47.5l18 50l-192 521h93l145 -395l143 395h83l-206 -570q-29 -78 -58.5 -103t-94.5 -25h-60v67zM340 728h73q0 -149 -157 -149t-157 149h73q0 -50 20 -70t64 -20t64 20t20 70z" />
    <glyph glyph-name="afii10050" unicode="&#x490;" horiz-adv-x="500" 
d="M88 690h311v150h81v-222h-302v-618h-90v690z" />
    <glyph glyph-name="afii10098" unicode="&#x491;" horiz-adv-x="428" 
d="M78 498h253v140h77v-207h-245v-431h-85v498z" />
    <glyph glyph-name="enquad" unicode="&#x2000;" horiz-adv-x="500" 
 />
    <glyph glyph-name="emquad" unicode="&#x2001;" horiz-adv-x="1000" 
 />
    <glyph glyph-name="enspace" unicode="&#x2002;" horiz-adv-x="500" 
 />
    <glyph glyph-name="emspace" unicode="&#x2003;" horiz-adv-x="1000" 
 />
    <glyph glyph-name="thirdemspace" unicode="&#x2004;" horiz-adv-x="300" 
 />
    <glyph glyph-name="quarteremspace" unicode="&#x2005;" horiz-adv-x="250" 
 />
    <glyph glyph-name="sixthemspace" unicode="&#x2006;" horiz-adv-x="100" 
 />
    <glyph glyph-name="figurespace" unicode="&#x2007;" horiz-adv-x="200" 
 />
    <glyph glyph-name="punctuationspace" unicode="&#x2008;" horiz-adv-x="210" 
 />
    <glyph glyph-name="thinspace" unicode="&#x2009;" horiz-adv-x="150" 
 />
    <glyph glyph-name="hairspace" unicode="&#x200a;" horiz-adv-x="35" 
 />
    <glyph glyph-name="zerowidthspace" unicode="&#x200b;" horiz-adv-x="0" 
 />
    <glyph glyph-name="endash" unicode="&#x2013;" horiz-adv-x="636" 
d="M586 220h-536v72h536v-72z" />
    <glyph glyph-name="emdash" unicode="&#x2014;" horiz-adv-x="876" 
d="M806 220h-736v72h736v-72z" />
    <glyph glyph-name="quoteleft" unicode="&#x2018;" horiz-adv-x="235" 
d="M119 457q-61 0 -61 65v50q0 73 25 102.5t83 29.5v-57q-25 0 -34 -14.5t-9 -44.5v-12q54 -3 54 -64q0 -55 -58 -55z" />
    <glyph glyph-name="quoteright" unicode="&#x2019;" horiz-adv-x="235" 
d="M116 700q61 0 61 -65v-50q0 -73 -25 -102.5t-83 -29.5v57q25 0 34 14.5t9 44.5v12q-54 3 -54 64q0 55 58 55z" />
    <glyph glyph-name="quotesinglbase" unicode="&#x201a;" horiz-adv-x="235" 
d="M116 109q61 0 61 -65v-50q0 -73 -25 -102.5t-83 -29.5v57q25 0 34 14.5t9 44.5v12q-54 3 -54 64q0 55 58 55z" />
    <glyph glyph-name="quotedblleft" unicode="&#x201c;" horiz-adv-x="414" 
d="M298 457q-61 0 -61 65v50q0 73 25 102.5t83 29.5v-57q-25 0 -34 -14.5t-9 -44.5v-12q54 -3 54 -64q0 -55 -58 -55zM119 457q-61 0 -61 65v50q0 73 25 102.5t83 29.5v-57q-25 0 -34 -14.5t-9 -44.5v-12q54 -3 54 -64q0 -55 -58 -55z" />
    <glyph glyph-name="quotedblright" unicode="&#x201d;" horiz-adv-x="414" 
d="M116 700q61 0 61 -65v-50q0 -73 -25 -102.5t-83 -29.5v57q25 0 34 14.5t9 44.5v12q-54 3 -54 64q0 55 58 55zM295 700q61 0 61 -65v-50q0 -73 -25 -102.5t-83 -29.5v57q25 0 34 14.5t9 44.5v12q-54 3 -54 64q0 55 58 55z" />
    <glyph glyph-name="quotedblbase" unicode="&#x201e;" horiz-adv-x="414" 
d="M116 109q61 0 61 -65v-50q0 -73 -25 -102.5t-83 -29.5v57q25 0 34 14.5t9 44.5v12q-54 3 -54 64q0 55 58 55zM295 109q61 0 61 -65v-50q0 -73 -25 -102.5t-83 -29.5v57q25 0 34 14.5t9 44.5v12q-54 3 -54 64q0 55 58 55z" />
    <glyph glyph-name="bullet" unicode="&#x2022;" horiz-adv-x="428" 
d="M348 359q0 -129 -134 -129t-134 129q0 128 134 128t134 -128z" />
    <glyph glyph-name="ellipsis" unicode="&#x2026;" horiz-adv-x="618" 
d="M177 50q0 -60 -61 -60q-58 0 -58 60q0 59 58 59q61 0 61 -59zM369 50q0 -60 -61 -60q-58 0 -58 60q0 59 58 59q61 0 61 -59zM560 50q0 -60 -61 -60q-58 0 -58 60q0 59 58 59q61 0 61 -59z" />
    <glyph glyph-name="nonbreakingspace.narrow" unicode="&#x202f;" horiz-adv-x="100" 
 />
    <glyph glyph-name="perthousand" unicode="&#x2030;" horiz-adv-x="1257" 
d="M1052 -11q-89 0 -132.5 48t-43.5 135t43.5 135t132.5 48q175 0 175 -183t-175 -183zM1052 54q43 0 64.5 23.5t21.5 76.5v36q0 101 -86 101t-86 -101v-36q0 -53 21 -76.5t65 -23.5zM735 690l-516 -690h-91l515 690h92zM206 334q-89 0 -132.5 48t-43.5 135t43.5 135
t132.5 48q88 0 131.5 -48t43.5 -135t-43.5 -135t-131.5 -48zM206 398q43 0 64.5 23.5t21.5 77.5v36q0 101 -86 101q-87 0 -87 -101v-36q0 -54 21.5 -77.5t65.5 -23.5zM656 -11q-175 0 -175 183t175 183q89 0 132.5 -48t43.5 -135t-43.5 -135t-132.5 -48zM656 54
q44 0 65 23.5t21 76.5v36q0 101 -86 101t-86 -101v-36q0 -53 21.5 -76.5t64.5 -23.5z" />
    <glyph glyph-name="minute" unicode="&#x2032;" horiz-adv-x="274" 
d="M124 690h88l-73 -256h-77z" />
    <glyph glyph-name="second" unicode="&#x2033;" horiz-adv-x="436" 
d="M124 690h88l-73 -256h-77zM286 690h88l-73 -256h-77z" />
    <glyph glyph-name="guilsinglleft" unicode="&#x2039;" horiz-adv-x="275" 
d="M234 388l-138 -128l139 -128v-102l-200 186v81l199 186v-95z" />
    <glyph glyph-name="guilsinglright" unicode="&#x203a;" horiz-adv-x="275" 
d="M41 125l138 128l-139 128v102l200 -186v-81l-199 -186v95z" />
    <glyph glyph-name="fraction" unicode="&#x2044;" horiz-adv-x="284" 
d="M-166 0l522 750h88l-523 -750h-87z" />
    <glyph glyph-name="mathspacemedium" unicode="&#x205f;" horiz-adv-x="180" 
 />
    <glyph glyph-name="joinerspace" unicode="&#x2060;" horiz-adv-x="0" 
 />
    <glyph glyph-name="Euro" unicode="&#x20ac;" horiz-adv-x="665" 
d="M28 382v73h92q38 245 256 245q114 0 174.5 -45t75.5 -141h-94q-10 59 -47.5 86.5t-108.5 27.5q-142 0 -165 -173h244v-73h-248v-70v-2h248v-72h-244q11 -89 51.5 -132.5t114.5 -43.5q69 0 107 25t49 84h94q-16 -93 -77.5 -137t-173.5 -44q-222 0 -256 248h-92v72h85v35
v37h-85z" />
    <glyph glyph-name="uni20B4" unicode="&#x20b4;" 
d="M316 62q134 0 146 95h93q-7 -82 -68.5 -124.5t-170.5 -42.5q-235 0 -235 156q0 54 34 95h-63v73h522v-73h-359q-42 -29 -42 -74v-20q0 -85 143 -85zM318 628q-127 0 -137 -95h-93q5 79 65.5 123t164.5 44q106 0 162.5 -42.5t56.5 -115.5q0 -50 -31 -89h68v-73h-522v73
h352q41 29 41 72v18q0 85 -127 85z" />
    <glyph glyph-name="uni20B8" unicode="&#x20b8;" horiz-adv-x="557" 
d="M537 475h-214v-475h-90v475h-213v72h517v-72zM537 618h-517v72h517v-72z" />
    <glyph glyph-name="uni20BD" unicode="&#x20bd;" horiz-adv-x="612" 
d="M572 476q0 -99 -56 -152.5t-162 -53.5h-170v-72h236v-69h-236v-129h-90v129h-74v69h74v72h-74v72h74v348h260q106 0 162 -56t56 -158zM478 460v31q0 127 -130 127h-164v-276h164q67 0 98.5 32t31.5 86z" />
    <glyph glyph-name="afii61352" unicode="&#x2116;" horiz-adv-x="1085" 
d="M206 690l305 -571v571h86v-690h-119l-304 568v-568h-86v690h118zM858 334q-175 0 -175 183t175 183q89 0 132.5 -48t43.5 -135t-43.5 -135t-132.5 -48zM858 398q44 0 65 23.5t21 77.5v36q0 101 -86 101t-86 -101v-36q0 -54 21.5 -77.5t64.5 -23.5zM696 198v72h325v-72
h-325z" />
    <glyph glyph-name="trademark" unicode="&#x2122;" horiz-adv-x="792" 
d="M512 400l-78 200v-253h-71v343h109l84 -209l83 209h105v-343h-75v249l-78 -196h-79zM329 628h-114v-281h-75v281h-114v62h303v-62z" />
    <glyph glyph-name="onethird" unicode="&#x2153;" horiz-adv-x="907" 
d="M697 55q82 0 82 55v21q0 57 -83 57h-40v66h40q68 0 68 50v16q0 50 -68 50q-70 0 -77 -51h-84q11 116 161 116q67 0 109.5 -28.5t42.5 -84.5q0 -37 -23 -64t-60 -34q44 -7 70.5 -35t26.5 -70q0 -61 -43.5 -95t-120.5 -34q-164 0 -174 129h83q5 -33 26 -48.5t64 -15.5z
M28 587v84l100 79h82v-425h-82v342zM100 0l522 750h88l-523 -750h-87z" />
    <glyph glyph-name="twothirds" unicode="&#x2154;" horiz-adv-x="1015" 
d="M805 55q82 0 82 55v21q0 57 -83 57h-40v66h40q68 0 68 50v16q0 50 -68 50q-70 0 -77 -51h-84q11 116 161 116q67 0 109.5 -28.5t42.5 -84.5q0 -37 -23 -64t-60 -34q44 -7 70.5 -35t26.5 -70q0 -61 -43.5 -95t-120.5 -34q-164 0 -174 129h83q5 -33 26 -48.5t64 -15.5z
M208 0l522 750h88l-523 -750h-87zM194 694q-36 0 -54 -15t-21 -48h-84q5 129 159 129t154 -126q0 -43 -22 -72.5t-54 -45.5t-65 -30.5t-58.5 -37.5t-30.5 -57h230v-66h-316v26q0 57 24 96.5t58 59t67.5 35t57.5 35t24 46.5v15q0 56 -69 56z" />
    <glyph glyph-name="oneeighth" unicode="&#x215b;" horiz-adv-x="931" 
d="M699 -10q-185 0 -185 129q0 37 24 63.5t66 38.5q-73 25 -73 96q0 59 44 88.5t124 29.5q168 0 168 -118q0 -72 -71 -96q40 -12 64 -39t24 -63q0 -129 -185 -129zM699 184q-100 0 -100 -57v-12q0 -59 100 -59t100 59v12q0 57 -100 57zM699 250q82 1 82 57v8q0 54 -82 54
t-82 -54v-8q0 -57 82 -57zM28 587v84l100 79h82v-425h-82v342zM100 0l522 750h88l-523 -750h-87z" />
    <glyph glyph-name="threeeighths" unicode="&#x215c;" horiz-adv-x="1024" 
d="M193 0l522 750h88l-523 -750h-87zM212 380q82 0 82 55v21q0 57 -83 57h-40v66h40q68 0 68 50v16q0 50 -68 50q-70 0 -77 -51h-84q11 116 161 116q67 0 109.5 -28.5t42.5 -84.5q0 -37 -23 -64t-60 -34q44 -7 70.5 -35t26.5 -70q0 -61 -43.5 -95t-120.5 -34
q-164 0 -174 129h83q5 -33 26 -48.5t64 -15.5zM792 -10q-185 0 -185 129q0 37 24 63.5t66 38.5q-73 25 -73 96q0 59 44 88.5t124 29.5q168 0 168 -118q0 -72 -71 -96q40 -12 64 -39t24 -63q0 -129 -185 -129zM792 184q-100 0 -100 -57v-12q0 -59 100 -59t100 59v12
q0 57 -100 57zM792 250q82 1 82 57v8q0 54 -82 54t-82 -54v-8q0 -57 82 -57z" />
    <glyph glyph-name="fiveeighths" unicode="&#x215d;" horiz-adv-x="1028" 
d="M197 0l522 750h88l-523 -750h-87zM796 -10q-185 0 -185 129q0 37 24 63.5t66 38.5q-73 25 -73 96q0 59 44 88.5t124 29.5q168 0 168 -118q0 -72 -71 -96q40 -12 64 -39t24 -63q0 -129 -185 -129zM796 184q-100 0 -100 -57v-12q0 -59 100 -59t100 59v12q0 57 -100 57z
M796 250q82 1 82 57v8q0 54 -82 54t-82 -54v-8q0 -57 82 -57zM211 381q81 0 81 68v24q0 69 -83 69q-59 0 -87 -31l-75 10l27 229h272v-66h-208l-14 -110q39 35 103 35q71 0 111 -36.5t40 -108.5q0 -73 -43.5 -111t-123.5 -38q-163 0 -179 120h86q6 -30 28.5 -42t64.5 -12z
" />
    <glyph glyph-name="seveneighths" unicode="&#x215e;" horiz-adv-x="881" 
d="M649 -10q-185 0 -185 129q0 37 24 63.5t66 38.5q-73 25 -73 96q0 59 44 88.5t124 29.5q168 0 168 -118q0 -72 -71 -96q40 -12 64 -39t24 -63q0 -129 -185 -129zM649 184q-100 0 -100 -57v-12q0 -59 100 -59t100 59v12q0 57 -100 57zM649 250q82 1 82 57v8q0 54 -82 54
t-82 -54v-8q0 -57 82 -57zM50 0l522 750h88l-523 -750h-87zM10 684v66h309v-53l-189 -372h-78l182 359h-224z" />
    <glyph glyph-name="arrowleft" unicode="&#x2190;" horiz-adv-x="804" 
d="M734 314h-542l149 -115v-94l-271 211v64l270 212v-92l-146 -114h540v-72z" />
    <glyph glyph-name="arrowright" unicode="&#x2192;" horiz-adv-x="804" 
d="M70 386h542l-149 115v94l271 -211v-64l-270 -212v92l146 114h-540v72z" />
    <glyph glyph-name="minus" unicode="&#x2212;" 
d="M561 314h-496v72h496v-72z" />
    <glyph glyph-name="approxequal" unicode="&#x2248;" horiz-adv-x="618" 
d="M202 510q50 0 121.5 -35t99.5 -35q31 0 44 15t14 51h72q-1 -138 -130 -138q-46 0 -115.5 34.5t-104.5 34.5q-66 0 -67 -64h-72q1 68 37.5 102.5t100.5 34.5zM202 328q50 0 121.5 -34.5t99.5 -34.5q32 0 44.5 14.5t13.5 51.5h72q-1 -138 -130 -138q-46 0 -115.5 34.5
t-104.5 34.5q-66 0 -67 -65h-72q1 68 37.5 102.5t100.5 34.5z" />
    <glyph glyph-name="notequal" unicode="&#x2260;" 
d="M207 69h-81l77 148h-138v72h175l64 123h-239v72h277l77 149h81l-77 -149h138v-72h-176l-64 -123h240v-72h-277z" />
    <glyph glyph-name="lessequal" unicode="&#x2264;" 
d="M561 245l-496 172v81l496 173v-80l-392 -133l392 -132v-81zM561 108h-496v72h496v-72z" />
    <glyph glyph-name="greaterequal" unicode="&#x2265;" 
d="M65 670l496 -172v-81l-496 -173v80l390 132l-390 133v81zM561 108h-496v72h496v-72z" />
    <glyph glyph-name="Pcircle" unicode="&#x24c5;" horiz-adv-x="844" 
d="M597 416q0 126 -139 126h-164v-390h83v139h81q139 0 139 125zM514 427v-22q0 -47 -59 -47h-78v117h78q59 0 59 -48zM786 345q0 -169 -100 -262t-262 -93q-163 0 -263.5 93t-100.5 262t100.5 262t263.5 93q162 0 262 -93t100 -262zM424 49q136 0 215.5 76t79.5 220
t-79.5 220t-215.5 76t-216 -76t-80 -220t80 -220t216 -76z" />
    <glyph glyph-name="apple.icon" unicode="&#xf8ff;" horiz-adv-x="1011" 
d="M656 613q107 0 163 -81l-5 -4q-6 -4 -13.5 -10.5t-17 -16t-18.5 -22.5t-17 -28t-12.5 -35t-4.5 -42q0 -34 11 -63.5t26.5 -47.5t32.5 -31t27.5 -18t12.5 -5q-10 -49 -55 -118q-23 -33 -38 -50.5t-40 -34t-52 -16.5t-64 16t-71 16q-33 0 -72 -17t-64 -17q-24 0 -48.5 16.5
t-38.5 33.5t-41 54q-38 55 -62.5 128.5t-24.5 144.5q0 114 62.5 180.5t145.5 66.5q29 0 73.5 -18t59.5 -18q13 0 61.5 18.5t83.5 18.5zM628 681q-21 -25 -52.5 -41.5t-59.5 -16.5h-13q-1 2 -1 16q0 57 46 111q23 26 56.5 43.5t64.5 18.5q2 -4 2 -17q0 -59 -43 -114z" />
    <glyph glyph-name="zerowidthnobreak" unicode="&#xfeff;" horiz-adv-x="0" 
 />
    <glyph glyph-name="numbersign.icon" horiz-adv-x="740" 
d="M59 436l16 73h149l39 181h90l-39 -181h183l39 181h90l-39 -181h121l-16 -73h-121l-41 -193h151l-16 -73h-150l-36 -170h-90l36 170h-183l-36 -170h-90l36 170h-120l16 73h119l41 193h-149zM298 436l-41 -193h183l41 193h-183z" />
    <glyph glyph-name="dollar.tab" 
d="M355 -120h-82v112q-103 8 -153 55t-56 143h94q4 -70 42.5 -99t119.5 -29q147 0 147 115q0 45 -21.5 73.5t-56 41t-76 20.5t-82.5 18.5t-75.5 29t-56 58t-21.5 98.5q0 80 50.5 128t144.5 55v111h82v-113q181 -17 192 -178h-94q-6 60 -42.5 84.5t-104.5 24.5
q-134 0 -134 -112q0 -42 21.5 -68t56 -38t76 -19.5t82.5 -19t75.5 -30.5t56 -60t21.5 -102q0 -86 -53 -133.5t-153 -54.5v-111z" />
    <glyph glyph-name="parenleft.uc" horiz-adv-x="377" 
d="M333 -134q-125 22 -189 133t-64 346t65 346.5t188 133.5v-73q-78 -21 -122 -104.5t-44 -216.5v-171q0 -134 44 -217t122 -104v-73z" />
    <glyph glyph-name="parenright.uc" horiz-adv-x="377" 
d="M44 825q125 -22 189 -133t64 -346t-65 -346.5t-188 -133.5v73q78 21 122 104.5t44 216.5v171q0 134 -44 217t-122 104v73z" />
    <glyph glyph-name="asterisk.icon" horiz-adv-x="709" 
d="M303 690h102l-12 -283l236 151l47 -81l-255 -131l255 -133l-46 -81l-238 153l13 -285h-102l15 285l-239 -153l-47 81l255 133l-255 131l47 81l238 -152z" />
    <glyph glyph-name="hyphen.uc" horiz-adv-x="417" 
d="M367 310h-317v80h317v-80z" />
    <glyph glyph-name="slash.uc" horiz-adv-x="411" 
d="M93 -60h-83l308 810h83z" />
    <glyph glyph-name="zero.den" horiz-adv-x="461" 
d="M417 212q0 -103 -46 -162.5t-140 -59.5q-95 0 -141 59.5t-46 162.5q0 104 46 163.5t141 59.5t140.5 -59.5t45.5 -163.5zM333 194v40q0 135 -102 135t-102 -135v-40q0 -138 102 -138t102 138z" />
    <glyph glyph-name="zero.num" horiz-adv-x="461" 
d="M417 537q0 -103 -46 -162.5t-140 -59.5q-95 0 -141 59.5t-46 162.5q0 104 46 163.5t141 59.5t140.5 -59.5t45.5 -163.5zM333 519v40q0 135 -102 135t-102 -135v-40q0 -138 102 -138t102 138z" />
    <glyph glyph-name="zero.sub" horiz-adv-x="461" 
d="M417 128q0 -103 -46 -162.5t-140 -59.5q-95 0 -141 59.5t-46 162.5q0 104 46 163.5t141 59.5t140.5 -59.5t45.5 -163.5zM333 110v40q0 135 -102 135t-102 -135v-40q0 -138 102 -138t102 138z" />
    <glyph glyph-name="zero.sup" horiz-adv-x="461" 
d="M417 587q0 -103 -46 -162.5t-140 -59.5q-95 0 -141 59.5t-46 162.5q0 104 46 163.5t141 59.5t140.5 -59.5t45.5 -163.5zM333 569v40q0 135 -102 135t-102 -135v-40q0 -138 102 -138t102 138z" />
    <glyph glyph-name="zero.tab" 
d="M573 345q0 -168 -63.5 -261.5t-196.5 -93.5t-197 93.5t-64 261.5q0 169 64 262t197 93t196.5 -93t63.5 -262zM479 314v64q0 250 -166 250q-167 0 -167 -250v-64q0 -252 167 -252q166 0 166 252z" />
    <glyph glyph-name="one.den" horiz-adv-x="287" 
d="M28 262v84l100 79h82v-425h-82v342z" />
    <glyph glyph-name="one.num" horiz-adv-x="287" 
d="M28 587v84l100 79h82v-425h-82v342z" />
    <glyph glyph-name="one.sub" horiz-adv-x="287" 
d="M28 178v84l100 79h82v-425h-82v342z" />
    <glyph glyph-name="one.sup" horiz-adv-x="287" 
d="M28 637v84l100 79h82v-425h-82v342z" />
    <glyph glyph-name="one.tab" 
d="M121 482v89l166 119h90v-618h166v-72h-422v72h166v534z" />
    <glyph glyph-name="two.den" horiz-adv-x="381" 
d="M194 369q-36 0 -54 -15t-21 -48h-84q5 129 159 129t154 -126q0 -43 -22 -72.5t-54 -45.5t-65 -30.5t-58.5 -37.5t-30.5 -57h230v-66h-316v26q0 57 24 96.5t58 59t67.5 35t57.5 35t24 46.5v15q0 56 -69 56z" />
    <glyph glyph-name="two.num" horiz-adv-x="384" 
d="M194 694q-36 0 -54 -15t-21 -48h-84q5 129 159 129t154 -126q0 -43 -22 -72.5t-54 -45.5t-65 -30.5t-58.5 -37.5t-30.5 -57h230v-66h-316v26q0 57 24 96.5t58 59t67.5 35t57.5 35t24 46.5v15q0 56 -69 56z" />
    <glyph glyph-name="two.sub" horiz-adv-x="381" 
d="M194 285q-36 0 -54 -15t-21 -48h-84q5 129 159 129t154 -126q0 -43 -22 -72.5t-54 -45.5t-65 -30.5t-58.5 -37.5t-30.5 -57h230v-66h-316v26q0 57 24 96.5t58 59t67.5 35t57.5 35t24 46.5v15q0 56 -69 56z" />
    <glyph glyph-name="two.sup" horiz-adv-x="381" 
d="M194 744q-36 0 -54 -15t-21 -48h-84q5 129 159 129t154 -126q0 -43 -22 -72.5t-54 -45.5t-65 -30.5t-58.5 -37.5t-30.5 -57h230v-66h-316v26q0 57 24 96.5t58 59t67.5 35t57.5 35t24 46.5v15q0 56 -69 56z" />
    <glyph glyph-name="two.tab" 
d="M320 628q-64 0 -97.5 -29.5t-38.5 -101.5h-94q11 203 230 203q220 0 220 -194q0 -55 -19.5 -96t-51 -65.5t-70 -44t-77.5 -38t-72 -40t-55.5 -58t-25.5 -84.5h373v-80h-461v42q0 67 20 118t52.5 81.5t71 53.5t77.5 40.5t71.5 36.5t52.5 47.5t20 66.5v34q0 108 -126 108z
" />
    <glyph glyph-name="three.alt" horiz-adv-x="584" 
d="M85 610v80h419v-55l-180 -223q115 -7 163 -57.5t48 -143.5q0 -221 -237 -221q-121 0 -181 49.5t-68 162.5h94q5 -74 41 -107t114 -33q70 0 106.5 31t36.5 90v45q0 118 -146 118h-74v56l168 208h-304z" />
    <glyph glyph-name="three.den" horiz-adv-x="416" 
d="M212 55q82 0 82 55v21q0 57 -83 57h-40v66h40q68 0 68 50v16q0 50 -68 50q-70 0 -77 -51h-84q11 116 161 116q67 0 109.5 -28.5t42.5 -84.5q0 -37 -23 -64t-60 -34q44 -7 70.5 -35t26.5 -70q0 -61 -43.5 -95t-120.5 -34q-164 0 -174 129h83q5 -33 26 -48.5t64 -15.5z" />
    <glyph glyph-name="three.num" horiz-adv-x="416" 
d="M212 380q82 0 82 55v21q0 57 -83 57h-40v66h40q68 0 68 50v16q0 50 -68 50q-70 0 -77 -51h-84q11 116 161 116q67 0 109.5 -28.5t42.5 -84.5q0 -37 -23 -64t-60 -34q44 -7 70.5 -35t26.5 -70q0 -61 -43.5 -95t-120.5 -34q-164 0 -174 129h83q5 -33 26 -48.5t64 -15.5z
" />
    <glyph glyph-name="three.sub" horiz-adv-x="416" 
d="M212 -29q82 0 82 55v21q0 57 -83 57h-40v66h40q68 0 68 50v16q0 50 -68 50q-70 0 -77 -51h-84q11 116 161 116q67 0 109.5 -28.5t42.5 -84.5q0 -37 -23 -64t-60 -34q44 -7 70.5 -35t26.5 -70q0 -61 -43.5 -95t-120.5 -34q-164 0 -174 129h83q5 -33 26 -48.5t64 -15.5z
" />
    <glyph glyph-name="three.sup" horiz-adv-x="416" 
d="M212 430q82 0 82 55v21q0 57 -83 57h-40v66h40q68 0 68 50v16q0 50 -68 50q-70 0 -77 -51h-84q11 116 161 116q67 0 109.5 -28.5t42.5 -84.5q0 -37 -23 -64t-60 -34q44 -7 70.5 -35t26.5 -70q0 -61 -43.5 -95t-120.5 -34q-164 0 -174 129h83q5 -33 26 -48.5t64 -15.5z
" />
    <glyph glyph-name="three.tab" 
d="M315 62q69 0 105.5 29.5t36.5 86.5v34q0 113 -139 113h-59v73h59q56 0 86.5 27t30.5 78v27q0 98 -120 98q-66 0 -98 -27t-37 -92h-94q14 191 229 191q214 0 214 -180q0 -57 -30.5 -99t-80.5 -55q61 -12 97 -56.5t36 -112.5q0 -101 -60.5 -154t-175.5 -53q-120 0 -181 50
t-69 162h94q5 -73 41.5 -106.5t114.5 -33.5z" />
    <glyph glyph-name="three.tab.alt" 
d="M97 610v80h419v-55l-180 -223q115 -7 163 -57.5t48 -143.5q0 -109 -60 -165t-176 -56q-121 0 -181.5 49.5t-68.5 162.5h94q5 -73 41.5 -106.5t114.5 -33.5q69 0 105.5 31t36.5 90v45q0 118 -146 118h-73v56l167 208h-304z" />
    <glyph glyph-name="four.alt" horiz-adv-x="588" 
d="M458 0h-90v174h-340v57l277 459h92l-268 -443h239v215h90v-215h109v-73h-109v-174z" />
    <glyph glyph-name="four.den" horiz-adv-x="419" 
d="M216 425h119v-268h70v-66h-70v-91h-83v91h-230v57zM106 157h146v208z" />
    <glyph glyph-name="four.num" horiz-adv-x="419" 
d="M216 750h119v-268h70v-66h-70v-91h-83v91h-230v57zM106 482h146v208z" />
    <glyph glyph-name="four.sub" horiz-adv-x="419" 
d="M216 341h119v-268h70v-66h-70v-91h-83v91h-230v57zM106 73h146v208z" />
    <glyph glyph-name="four.sup" horiz-adv-x="419" 
d="M216 800h119v-268h70v-66h-70v-91h-83v91h-230v57zM106 532h146v208z" />
    <glyph glyph-name="four.tab" 
d="M336 690h146v-443h105v-73h-105v-174h-90v174h-346v57zM146 247h246v390z" />
    <glyph glyph-name="four.tab.alt" 
d="M478 0h-90v174h-338v57l274 459h94l-265 -443h235v215h90v-215h109v-73h-109v-174z" />
    <glyph glyph-name="five.den" horiz-adv-x="410" 
d="M211 56q81 0 81 68v24q0 69 -83 69q-59 0 -87 -31l-75 10l27 229h272v-66h-208l-14 -110q38 35 103 35q71 0 111 -36.5t40 -108.5q0 -73 -43.5 -111t-123.5 -38q-163 0 -179 120h86q6 -30 28.5 -42t64.5 -12z" />
    <glyph glyph-name="five.num" horiz-adv-x="410" 
d="M211 381q81 0 81 68v24q0 69 -83 69q-59 0 -87 -31l-75 10l27 229h272v-66h-208l-14 -110q39 35 103 35q71 0 111 -36.5t40 -108.5q0 -73 -43.5 -111t-123.5 -38q-163 0 -179 120h86q6 -30 28.5 -42t64.5 -12z" />
    <glyph glyph-name="five.sub" horiz-adv-x="410" 
d="M211 -28q81 0 81 68v24q0 69 -83 69q-59 0 -87 -31l-75 10l27 229h272v-66h-208l-14 -110q38 35 103 35q71 0 111 -36.5t40 -108.5q0 -73 -43.5 -111t-123.5 -38q-163 0 -179 120h86q6 -30 28.5 -42t64.5 -12z" />
    <glyph glyph-name="five.sup" horiz-adv-x="410" 
d="M211 431q81 0 81 68v24q0 69 -83 69q-59 0 -87 -31l-75 10l27 229h272v-66h-208l-14 -110q39 35 103 35q71 0 111 -36.5t40 -108.5q0 -73 -43.5 -111t-123.5 -38q-163 0 -179 120h86q6 -30 28.5 -42t64.5 -12z" />
    <glyph glyph-name="five.tab" 
d="M321 62q143 0 143 146v39q0 137 -142 137q-93 0 -136 -67l-94 16l39 357h384v-80h-308l-24 -214q55 61 159 61q101 0 158.5 -56.5t57.5 -171.5q0 -117 -61.5 -178t-175.5 -61q-234 0 -254 199h94q9 -69 48.5 -98t111.5 -29z" />
    <glyph glyph-name="six.den" horiz-adv-x="438" 
d="M226 368q-49 0 -74 -28.5t-25 -95.5v-13q39 46 118 46q71 0 112.5 -36.5t41.5 -107.5q0 -69 -45.5 -106t-127.5 -37q-94 0 -138 48t-44 167q0 128 48.5 178.5t137.5 50.5q143 0 160 -108h-84q-10 42 -80 42zM226 56q88 0 88 66v25q0 64 -88 64q-49 0 -71 -19t-22 -59
q0 -77 93 -77z" />
    <glyph glyph-name="six.num" horiz-adv-x="438" 
d="M226 694q-49 0 -74 -28.5t-25 -95.5v-13q39 46 118 46q71 0 112.5 -36.5t41.5 -107.5q0 -69 -45.5 -106t-127.5 -37q-94 0 -138 48t-44 167q0 128 48.5 178.5t137.5 50.5q143 0 160 -108h-84q-10 42 -80 42zM226 382q88 0 88 66v25q0 64 -88 64q-49 0 -71 -19t-22 -59
q0 -77 93 -77z" />
    <glyph glyph-name="six.sub" horiz-adv-x="438" 
d="M226 284q-49 0 -74 -28.5t-25 -95.5v-13q39 46 118 46q71 0 112.5 -36.5t41.5 -107.5q0 -69 -45.5 -106t-127.5 -37q-94 0 -138 48t-44 167q0 128 48.5 178.5t137.5 50.5q143 0 160 -108h-84q-10 42 -80 42zM226 -28q88 0 88 66v25q0 64 -88 64q-49 0 -71 -19t-22 -59
q0 -77 93 -77z" />
    <glyph glyph-name="six.sup" horiz-adv-x="438" 
d="M226 744q-49 0 -74 -28.5t-25 -95.5v-13q39 46 118 46q71 0 112.5 -36.5t41.5 -107.5q0 -69 -45.5 -106t-127.5 -37q-94 0 -138 48t-44 167q0 128 48.5 178.5t137.5 50.5q143 0 160 -108h-84q-10 42 -80 42zM226 432q88 0 88 66v25q0 64 -88 64q-49 0 -71 -19t-22 -59
q0 -77 93 -77z" />
    <glyph glyph-name="six.tab" 
d="M325 628q-80 0 -122 -56t-42 -192v-20q24 37 70.5 59.5t110.5 22.5q103 0 162.5 -57t59.5 -165q0 -111 -63.5 -170.5t-180.5 -59.5q-132 0 -193.5 76t-60.5 269q0 106 19.5 179t56 112.5t81.5 56.5t104 17q204 0 222 -165h-94q-14 93 -130 93zM320 62q150 0 150 140v37
q0 129 -150 129q-155 0 -155 -145q0 -83 37 -122t118 -39z" />
    <glyph glyph-name="seven.den" horiz-adv-x="325" 
d="M10 359v66h309v-53l-189 -372h-78l182 359h-224z" />
    <glyph glyph-name="seven.num" horiz-adv-x="325" 
d="M10 684v66h309v-53l-189 -372h-78l182 359h-224z" />
    <glyph glyph-name="seven.sub" horiz-adv-x="325" 
d="M10 275v66h309v-53l-189 -372h-78l182 359h-224z" />
    <glyph glyph-name="seven.sup" horiz-adv-x="325" 
d="M10 734v66h309v-53l-189 -372h-78l182 359h-224z" />
    <glyph glyph-name="seven.tab" 
d="M79 610v80h476v-55l-307 -635h-90l295 610h-374z" />
    <glyph glyph-name="eight.den" horiz-adv-x="448" 
d="M224 -10q-185 0 -185 129q0 37 24 63.5t66 38.5q-73 25 -73 96q0 59 44 88.5t124 29.5q168 0 168 -118q0 -72 -71 -96q40 -12 64 -39t24 -63q0 -129 -185 -129zM224 184q-100 0 -100 -57v-12q0 -59 100 -59t100 59v12q0 57 -100 57zM224 250q82 1 82 57v8q0 54 -82 54
t-82 -54v-8q0 -57 82 -57z" />
    <glyph glyph-name="eight.num" horiz-adv-x="448" 
d="M224 315q-185 0 -185 129q0 37 24 63.5t66 38.5q-73 25 -73 96q0 59 44 88.5t124 29.5q168 0 168 -118q0 -72 -71 -96q40 -12 64 -39t24 -63q0 -129 -185 -129zM224 509q-100 0 -100 -57v-12q0 -59 100 -59t100 59v12q0 57 -100 57zM224 575q82 1 82 57v8q0 54 -82 54
t-82 -54v-8q0 -57 82 -57z" />
    <glyph glyph-name="eight.sub" horiz-adv-x="448" 
d="M224 -94q-185 0 -185 129q0 37 24 63.5t66 38.5q-73 25 -73 96q0 59 44 88.5t124 29.5q168 0 168 -118q0 -72 -71 -96q40 -12 64 -39t24 -63q0 -129 -185 -129zM224 100q-100 0 -100 -57v-12q0 -59 100 -59t100 59v12q0 57 -100 57zM224 166q82 1 82 57v8q0 54 -82 54
t-82 -54v-8q0 -57 82 -57z" />
    <glyph glyph-name="eight.sup" horiz-adv-x="448" 
d="M224 365q-185 0 -185 129q0 37 24 63.5t66 38.5q-73 25 -73 96q0 59 44 88.5t124 29.5q168 0 168 -118q0 -72 -71 -96q40 -12 64 -39t24 -63q0 -129 -185 -129zM224 559q-100 0 -100 -57v-12q0 -59 100 -59t100 59v12q0 57 -100 57zM224 625q82 1 82 57v8q0 54 -82 54
t-82 -54v-8q0 -57 82 -57z" />
    <glyph glyph-name="eight.tab" 
d="M313 -10q-127 0 -191.5 51.5t-64.5 150.5q0 67 36 111.5t98 62.5q-107 34 -107 148q0 186 229 186t229 -186q0 -113 -103 -148q60 -17 95 -62t35 -112q0 -202 -256 -202zM313 326q-162 0 -162 -119v-27q0 -118 162 -118t162 118v27q0 119 -162 119zM313 398
q135 1 135 106v19q0 105 -135 105t-135 -105v-19q0 -54 32.5 -80t102.5 -26z" />
    <glyph glyph-name="nine.den" horiz-adv-x="438" 
d="M212 56q49 0 74 28.5t25 95.5v13q-39 -46 -118 -46q-71 0 -112.5 36.5t-41.5 107.5q0 69 45.5 106t127.5 37q94 0 138 -48t44 -167q0 -128 -48.5 -178.5t-137.5 -50.5q-143 0 -160 108h84q10 -42 80 -42zM212 368q-88 0 -88 -66v-25q0 -64 88 -64q49 0 71 19t22 59
q0 77 -93 77z" />
    <glyph glyph-name="nine.num" horiz-adv-x="438" 
d="M212 381q49 0 74 28.5t25 95.5v13q-39 -46 -118 -46q-71 0 -112.5 36.5t-41.5 107.5q0 69 45.5 106t127.5 37q94 0 138 -48t44 -167q0 -128 -48.5 -178.5t-137.5 -50.5q-143 0 -160 108h84q10 -42 80 -42zM212 693q-88 0 -88 -66v-25q0 -64 88 -64q49 0 71 19t22 59
q0 77 -93 77z" />
    <glyph glyph-name="nine.sub" horiz-adv-x="438" 
d="M212 -28q49 0 74 28.5t25 95.5v13q-39 -46 -118 -46q-71 0 -112.5 36.5t-41.5 107.5q0 69 45.5 106t127.5 37q94 0 138 -48t44 -167q0 -128 -48.5 -178.5t-137.5 -50.5q-143 0 -160 108h84q10 -42 80 -42zM212 284q-88 0 -88 -66v-25q0 -64 88 -64q49 0 71 19t22 59
q0 77 -93 77z" />
    <glyph glyph-name="nine.sup" horiz-adv-x="438" 
d="M212 431q49 0 74 28.5t25 95.5v13q-39 -46 -118 -46q-71 0 -112.5 36.5t-41.5 107.5q0 69 45.5 106t127.5 37q94 0 138 -48t44 -167q0 -128 -48.5 -178.5t-137.5 -50.5q-143 0 -160 108h84q10 -42 80 -42zM212 743q-88 0 -88 -66v-25q0 -64 88 -64q49 0 71 19t22 59
q0 77 -93 77z" />
    <glyph glyph-name="nine.tab" 
d="M301 60q80 0 122 56t42 192v20q-24 -37 -70.5 -59.5t-110.5 -22.5q-103 0 -162.5 57t-59.5 165q0 111 63.5 170.5t180.5 59.5q132 0 193.5 -76t60.5 -269q0 -106 -19.5 -179t-56 -112.5t-81.5 -56.5t-104 -17q-204 0 -222 165h94q14 -93 130 -93zM306 626
q-150 0 -150 -140v-37q0 -129 150 -129q155 0 155 145q0 83 -37 122t-118 39z" />
    <glyph glyph-name="at.uc" horiz-adv-x="1009" 
d="M482 104q-101 0 -153.5 62.5t-52.5 176.5q0 116 52 179.5t154 63.5q96 0 144 -70v60h84v-286q0 -70 17 -94.5t52 -24.5q47 0 65.5 38.5t18.5 115.5v59q0 80 -21 141.5t-54.5 98.5t-81.5 60.5t-95.5 32t-101.5 8.5q-53 0 -101 -9.5t-96.5 -33.5t-83.5 -61.5t-57 -98.5
t-22 -138v-69q0 -83 24.5 -147.5t61.5 -101.5t87 -61t95 -32t92 -8q54 0 116 10.5t95 31.5v-74q-66 -39 -211 -39q-53 0 -102 8t-102 26.5t-95.5 52.5t-77 82.5t-53.5 121t-19 162.5q0 120 35 209t98 140t141.5 75.5t174.5 24.5q95 0 173 -24t139 -73.5t94.5 -133
t33.5 -196.5q0 -265 -176 -265q-60 0 -91 28.5t-38 69.5q-44 -98 -162 -98zM496 171q62 0 96 40.5t34 111.5v44q0 74 -33.5 113t-96.5 39t-97 -39t-34 -114v-44q0 -72 34 -111.5t97 -39.5z" />
    <glyph glyph-name="bracketleft.uc" horiz-adv-x="358" 
d="M314 -128h-229v950h229v-72h-148v-806h148v-72z" />
    <glyph glyph-name="backslash.uc" horiz-adv-x="411" 
d="M318 -60l-308 810h83l308 -810h-83z" />
    <glyph glyph-name="bracketright.uc" horiz-adv-x="358" 
d="M44 822h229v-950h-229v72h148v806h-148v72z" />
    <glyph glyph-name="a.alt" horiz-adv-x="588" 
d="M430 0v76q-52 -86 -163 -86q-109 0 -164 67.5t-55 190.5t55 191.5t163 68.5q112 0 164 -86v76h81v-498h-81zM281 57q67 0 105 41t40 113v70q0 78 -37 119t-108 41q-70 0 -107 -41t-37 -120v-62q0 -75 37.5 -118t106.5 -43z" />
    <glyph glyph-name="braceleft.uc" horiz-adv-x="374" 
d="M194 685v-192q0 -32 -2.5 -52.5t-11 -42t-27.5 -35t-49 -18.5q30 -4 49 -15.5t27.5 -33t11 -42.5t2.5 -54v-186q0 -41 12.5 -56t42.5 -15h81v-72h-114q-58 0 -80.5 27t-22.5 91v191q0 63 -15 91.5t-64 29.5v91q48 1 63.5 31t15.5 89v192q0 64 22.5 91t80.5 27h114v-73
h-81q-30 0 -42.5 -13t-12.5 -51z" />
    <glyph glyph-name="bar.uc" horiz-adv-x="231" 
d="M156 -100h-81v890h81v-890z" />
    <glyph glyph-name="braceright.uc" horiz-adv-x="374" 
d="M180 8v192q0 32 2.5 52.5t11 42t27.5 35t49 18.5q-30 4 -49 15.5t-27.5 33t-11 42.5t-2.5 54v186q0 41 -12.5 56t-42.5 15h-81v72h114q58 0 80.5 -27t22.5 -91v-191q0 -63 15 -91.5t64 -29.5v-91q-48 -1 -63.5 -31t-15.5 -89v-192q0 -64 -22.5 -91t-80.5 -27h-114v73h81
q30 0 42.5 13t12.5 51z" />
    <glyph glyph-name="cent.tab" 
d="M362 -120h-81v112q-180 21 -180 256q0 236 180 258v112h81v-112q147 -16 162 -162h-85q-12 97 -119 97q-130 0 -130 -161v-62q0 -161 130 -161q54 0 84.5 21t37.5 72h85q-21 -142 -165 -158v-112z" />
    <glyph glyph-name="sterling.tab" 
d="M87 269v72h88q-21 31 -31 48.5t-21 50.5t-11 66q0 96 56 145t161 49q202 0 215 -182h-93q-6 60 -36.5 85t-85.5 25q-60 0 -92 -26t-32 -87v-13q0 -30 9 -54t32 -60.5t29 -46.5h205v-72h-178q6 -34 6 -56q0 -95 -75 -141h315v-72h-480v72q66 0 111.5 33t45.5 94v25
q0 22 -9 45h-129z" />
    <glyph glyph-name="yen.tab" 
d="M137 690l183 -265l178 265h93l-232 -340h169v-72h-169v-71h169v-72h-169v-135h-90v135h-168v72h168v71h-168v72h168l-235 340h103z" />
    <glyph glyph-name="dieresis.uc" horiz-adv-x="512" 
d="M423 844q0 -60 -60 -60t-60 60q0 59 60 59t60 -59zM208 844q0 -60 -60 -60q-59 0 -59 60q0 59 59 59q60 0 60 -59z" />
    <glyph glyph-name="guillemotleft.uc" horiz-adv-x="483" 
d="M234 481l-138 -128l139 -128v-102l-200 186v81l199 186v-95zM443 481l-138 -128l139 -128v-102l-200 186v81l199 186v-95z" />
    <glyph glyph-name="guillemotright.uc" horiz-adv-x="483" 
d="M249 218l138 128l-139 128v102l200 -186v-81l-199 -186v95zM40 218l138 128l-139 128v102l200 -186v-81l-199 -186v95z" />
    <glyph glyph-name="endash.uc" horiz-adv-x="636" 
d="M586 314h-536v72h536v-72z" />
    <glyph glyph-name="emdash.uc" horiz-adv-x="876" 
d="M806 314h-736v72h736v-72z" />
    <glyph glyph-name="guilsinglleft.uc" horiz-adv-x="275" 
d="M234 481l-138 -128l139 -128v-102l-200 186v81l199 186v-95z" />
    <glyph glyph-name="guilsinglright.uc" horiz-adv-x="275" 
d="M41 218l138 128l-139 128v102l200 -186v-81l-199 -186v95z" />
    <glyph glyph-name="Euro.tab" 
d="M33 382v73h85q16 123 75 184t169 61q102 0 156 -44.5t71 -141.5h-94q-9 59 -41 86.5t-92 27.5q-71 0 -107.5 -42.5t-45.5 -130.5h217v-73h-220v-70v-2h220v-72h-217q9 -89 45 -132.5t109 -43.5q58 0 90 24.5t43 84.5h94q-16 -94 -71.5 -137.5t-156.5 -43.5
q-111 0 -170 61.5t-74 186.5h-85v72h79v35v37h-79z" />
    <glyph glyph-name="uni20B4.tab" 
d="M315 62q128 0 138 95h94q-7 -82 -67 -124.5t-165 -42.5q-227 0 -227 156q0 54 34 95h-63v73h507v-73h-344q-42 -29 -42 -76v-17q0 -86 135 -86zM318 628q-121 0 -129 -95h-94q5 79 63.5 123t159.5 44q102 0 156.5 -42.5t54.5 -115.5q0 -50 -31 -89h68v-73h-507v73h337
q41 29 41 72v18q0 39 -29 62t-90 23z" />
    <glyph glyph-name="uni20B8.tab" 
d="M561 475h-203v-475h-90v475h-204v72h497v-72zM561 618h-497v72h497v-72z" />
    <glyph glyph-name="uni20BD.tab" 
d="M574 484q0 -96 -56 -147.5t-164 -51.5h-145v-72h216v-68h-216v-145h-90v145h-75v68h75v72h-75v73h75v332h235q108 0 164 -53.5t56 -152.5zM481 463v40q0 54 -33 84.5t-100 30.5h-139v-260h139q68 0 100.5 29t32.5 76z" />
    <glyph glyph-name="cyrbreve" horiz-adv-x="520" 
d="M344 728h73q0 -149 -157 -149t-157 149h73q0 -50 20 -70t64 -20t64 20t20 70z" />
    <glyph glyph-name="cyrbreve.uc" horiz-adv-x="510" 
d="M340 895h77q-2 -149 -162 -149t-162 149h77q1 -47 21 -67.5t64 -20.5t64 20.5t21 67.5z" />
    <glyph glyph-name="egg.icon" horiz-adv-x="1008" 
d="M836 292q0 -71 -20.5 -135t-60 -116.5t-105 -84t-147.5 -31.5q-109 0 -186.5 54.5t-112 135t-34.5 174.5q0 129 47.5 257.5t126 211.5t159.5 83t159.5 -83t126 -211t47.5 -255z" />
    <glyph glyph-name="phone1.icon" horiz-adv-x="542" 
d="M123 -10q-27 0 -64 31q-34 29 -34 49q0 11 15 30l79 98q11 13 24 13q10 0 34 -18q29 -21 42 -21q21 0 47.5 29.5t69.5 104.5q58 102 58 155q0 21 -33 37q-28 13 -36 20t-8 17q0 8 11 34l43 97q10 22 16.5 28t16.5 6q33 0 84 -34q17 -11 23 -25t6 -40q0 -141 -113 -334
q-62 -108 -124.5 -175t-99.5 -87q-28 -15 -57 -15z" />
    </font>
</defs>
</svg>
